  0
SECTION
  2
HEADER
  9
$ACADVER
  1
AC1015
  9
$ACADMAINTVER
 70
     6
  9
$DWGCODEPAGE
  3
ANSI_1252
  9
$INSBASE
 10
0.0
 20
0.0
 30
0.0
  9
$EXTMIN
 10
-297.0000000000001
 20
0.0
 30
0.0
  9
$EXTMAX
 10
0.0
 20
210.0000000000001
 30
0.0
  9
$LIMMIN
 10
0.0
 20
0.0
  9
$LIMMAX
 10
12.0
 20
9.0
  9
$ORTHOMODE
 70
     0
  9
$REGENMODE
 70
     1
  9
$FILLMODE
 70
     1
  9
$QTEXTMODE
 70
     0
  9
$MIRRTEXT
 70
     1
  9
$LTSCALE
 40
1.0
  9
$ATTMODE
 70
     1
  9
$TEXTSIZE
 40
0.2
  9
$TRACEWID
 40
0.05
  9
$TEXTSTYLE
  7
Standard
  9
$CLAYER
  8
0
  9
$CELTYPE
  6
ByLayer
  9
$CECOLOR
 62
   256
  9
$CELTSCALE
 40
1.0
  9
$DISPSILH
 70
     0
  9
$DIMSCALE
 40
1.0
  9
$DIMASZ
 40
0.18
  9
$DIMEXO
 40
0.0625
  9
$DIMDLI
 40
0.38
  9
$DIMRND
 40
0.0
  9
$DIMDLE
 40
0.0
  9
$DIMEXE
 40
0.18
  9
$DIMTP
 40
0.0
  9
$DIMTM
 40
0.0
  9
$DIMTXT
 40
0.18
  9
$DIMCEN
 40
0.09
  9
$DIMTSZ
 40
0.0
  9
$DIMTOL
 70
     0
  9
$DIMLIM
 70
     0
  9
$DIMTIH
 70
     1
  9
$DIMTOH
 70
     1
  9
$DIMSE1
 70
     0
  9
$DIMSE2
 70
     0
  9
$DIMTAD
 70
     0
  9
$DIMZIN
 70
     0
  9
$DIMBLK
  1

  9
$DIMASO
 70
     1
  9
$DIMSHO
 70
     1
  9
$DIMPOST
  1

  9
$DIMAPOST
  1

  9
$DIMALT
 70
     0
  9
$DIMALTD
 70
     2
  9
$DIMALTF
 40
25.4
  9
$DIMLFAC
 40
1.0
  9
$DIMTOFL
 70
     0
  9
$DIMTVP
 40
0.0
  9
$DIMTIX
 70
     0
  9
$DIMSOXD
 70
     0
  9
$DIMSAH
 70
     0
  9
$DIMBLK1
  1

  9
$DIMBLK2
  1

  9
$DIMSTYLE
  2
Standard
  9
$DIMCLRD
 70
     0
  9
$DIMCLRE
 70
     0
  9
$DIMCLRT
 70
     0
  9
$DIMTFAC
 40
1.0
  9
$DIMGAP
 40
0.09
  9
$DIMJUST
 70
     0
  9
$DIMSD1
 70
     0
  9
$DIMSD2
 70
     0
  9
$DIMTOLJ
 70
     1
  9
$DIMTZIN
 70
     0
  9
$DIMALTZ
 70
     0
  9
$DIMALTTZ
 70
     0
  9
$DIMUPT
 70
     0
  9
$DIMDEC
 70
     4
  9
$DIMTDEC
 70
     4
  9
$DIMALTU
 70
     2
  9
$DIMALTTD
 70
     2
  9
$DIMTXSTY
  7
Standard
  9
$DIMAUNIT
 70
     0
  9
$DIMADEC
 70
     0
  9
$DIMALTRND
 40
0.0
  9
$DIMAZIN
 70
     0
  9
$DIMDSEP
 70
    46
  9
$DIMATFIT
 70
     3
  9
$DIMFRAC
 70
     0
  9
$DIMLDRBLK
  1

  9
$DIMLUNIT
 70
     2
  9
$DIMLWD
 70
    -2
  9
$DIMLWE
 70
    -2
  9
$DIMTMOVE
 70
     0
  9
$LUNITS
 70
     2
  9
$LUPREC
 70
     4
  9
$SKETCHINC
 40
0.1
  9
$FILLETRAD
 40
0.5
  9
$AUNITS
 70
     0
  9
$AUPREC
 70
     0
  9
$MENU
  1
.
  9
$ELEVATION
 40
0.0
  9
$PELEVATION
 40
0.0
  9
$THICKNESS
 40
0.0
  9
$LIMCHECK
 70
     0
  9
$CHAMFERA
 40
0.5
  9
$CHAMFERB
 40
0.5
  9
$CHAMFERC
 40
1.0
  9
$CHAMFERD
 40
0.0
  9
$SKPOLY
 70
     0
  9
$TDCREATE
 40
2456997.441082396
  9
$TDUCREATE
 40
2456997.399415729
  9
$TDUPDATE
 40
2456997.441082755
  9
$TDUUPDATE
 40
2456997.399416088
  9
$TDINDWG
 40
0.0000000116
  9
$TDUSRTIMER
 40
0.0000000116
  9
$USRTIMER
 70
     1
  9
$ANGBASE
 50
0.0
  9
$ANGDIR
 70
     0
  9
$PDMODE
 70
     0
  9
$PDSIZE
 40
0.0
  9
$PLINEWID
 40
0.0
  9
$SPLFRAME
 70
     0
  9
$SPLINETYPE
 70
     6
  9
$SPLINESEGS
 70
     8
  9
$HANDSEED
  5
4B5
  9
$SURFTAB1
 70
     6
  9
$SURFTAB2
 70
     6
  9
$SURFTYPE
 70
     6
  9
$SURFU
 70
     6
  9
$SURFV
 70
     6
  9
$UCSBASE
  2

  9
$UCSNAME
  2

  9
$UCSORG
 10
0.0
 20
0.0
 30
0.0
  9
$UCSXDIR
 10
1.0
 20
0.0
 30
0.0
  9
$UCSYDIR
 10
0.0
 20
1.0
 30
0.0
  9
$UCSORTHOREF
  2

  9
$UCSORTHOVIEW
 70
     0
  9
$UCSORGTOP
 10
0.0
 20
0.0
 30
0.0
  9
$UCSORGBOTTOM
 10
0.0
 20
0.0
 30
0.0
  9
$UCSORGLEFT
 10
0.0
 20
0.0
 30
0.0
  9
$UCSORGRIGHT
 10
0.0
 20
0.0
 30
0.0
  9
$UCSORGFRONT
 10
0.0
 20
0.0
 30
0.0
  9
$UCSORGBACK
 10
0.0
 20
0.0
 30
0.0
  9
$PUCSBASE
  2

  9
$PUCSNAME
  2

  9
$PUCSORG
 10
0.0
 20
0.0
 30
0.0
  9
$PUCSXDIR
 10
1.0
 20
0.0
 30
0.0
  9
$PUCSYDIR
 10
0.0
 20
1.0
 30
0.0
  9
$PUCSORTHOREF
  2

  9
$PUCSORTHOVIEW
 70
     0
  9
$PUCSORGTOP
 10
0.0
 20
0.0
 30
0.0
  9
$PUCSORGBOTTOM
 10
0.0
 20
0.0
 30
0.0
  9
$PUCSORGLEFT
 10
0.0
 20
0.0
 30
0.0
  9
$PUCSORGRIGHT
 10
0.0
 20
0.0
 30
0.0
  9
$PUCSORGFRONT
 10
0.0
 20
0.0
 30
0.0
  9
$PUCSORGBACK
 10
0.0
 20
0.0
 30
0.0
  9
$USERI1
 70
     0
  9
$USERI2
 70
     0
  9
$USERI3
 70
     0
  9
$USERI4
 70
     0
  9
$USERI5
 70
     0
  9
$USERR1
 40
18.1
  9
$USERR2
 40
0.0
  9
$USERR3
 40
0.0
  9
$USERR4
 40
0.0
  9
$USERR5
 40
0.0
  9
$WORLDVIEW
 70
     1
  9
$SHADEDGE
 70
     3
  9
$SHADEDIF
 70
    70
  9
$TILEMODE
 70
     1
  9
$MAXACTVP
 70
    64
  9
$PINSBASE
 10
0.0
 20
0.0
 30
0.0
  9
$PLIMCHECK
 70
     0
  9
$PEXTMIN
 10
1.00000000000000E+20
 20
1.00000000000000E+20
 30
1.00000000000000E+20
  9
$PEXTMAX
 10
-1.00000000000000E+20
 20
-1.00000000000000E+20
 30
-1.00000000000000E+20
  9
$PLIMMIN
 10
0.0
 20
0.0
  9
$PLIMMAX
 10
12.0
 20
9.0
  9
$UNITMODE
 70
     0
  9
$VISRETAIN
 70
     1
  9
$PLINEGEN
 70
     0
  9
$PSLTSCALE
 70
     1
  9
$TREEDEPTH
 70
  3020
  9
$CMLSTYLE
  2
Standard
  9
$CMLJUST
 70
     0
  9
$CMLSCALE
 40
1.0
  9
$PROXYGRAPHICS
 70
     1
  9
$MEASUREMENT
 70
     1
  9
$CELWEIGHT
370
    -1
  9
$ENDCAPS
280
     0
  9
$JOINSTYLE
280
     0
  9
$LWDISPLAY
290
     0
  9
$INSUNITS
 70
     4
  9
$HYPERLINKBASE
  1

  9
$STYLESHEET
  1

  9
$XEDIT
290
     1
  9
$CEPSNTYPE
380
     0
  9
$PSTYLEMODE
290
     1
  9
$FINGERPRINTGUID
  2
{3C095667-D65D-4D97-B15A-1230E420776A}
  9
$VERSIONGUID
  2
{FAEB1C32-E019-11D5-929B-00C0DF256EC4}
  9
$EXTNAMES
290
     1
  9
$PSVPSCALE
 40
0.0
  9
$OLESTARTUP
290
     0
  0
ENDSEC
  0
SECTION
  2
CLASSES
  0
CLASS
  1
ACDBDICTIONARYWDFLT
  2
AcDbDictionaryWithDefault
  3
ObjectDBX Classes
 90
        0
280
     0
281
     0
  0
CLASS
  1
VISUALSTYLE
  2
AcDbVisualStyle
  3
ObjectDBX Classes
 90
     4095
280
     0
281
     0
  0
CLASS
  1
MATERIAL
  2
AcDbMaterial
  3
ObjectDBX Classes
 90
     1153
280
     0
281
     0
  0
CLASS
  1
DICTIONARYVAR
  2
AcDbDictionaryVar
  3
ObjectDBX Classes
 90
        0
280
     0
281
     0
  0
CLASS
  1
ACDBPLACEHOLDER
  2
AcDbPlaceHolder
  3
ObjectDBX Classes
 90
        0
280
     0
281
     0
  0
CLASS
  1
LAYOUT
  2
AcDbLayout
  3
ObjectDBX Classes
 90
        0
280
     0
281
     0
  0
ENDSEC
  0
SECTION
  2
TABLES
  0
TABLE
  2
VPORT
  5
8
330
0
100
AcDbSymbolTable
 70
     1
  0
VPORT
  5
29
330
8
100
AcDbSymbolTableRecord
100
AcDbViewportTableRecord
  2
*Active
 70
     0
 10
0.0
 20
0.0
 11
1.0
 21
1.0
 12
-148.5000000000001
 22
105.0000000000001
 13
0.0
 23
0.0
 14
0.5
 24
0.5
 15
0.5
 25
0.5
 16
0.0
 26
0.0
 36
1.0
 17
0.0
 27
0.0
 37
0.0
 40
231.0000000000001
 41
1.60267857142857
 42
50.0
 43
0.0
 44
0.0
 50
0.0
 51
0.0
 71
     0
 72
   100
 73
     1
 74
     3
 75
     0
 76
     0
 77
     0
 78
     0
281
     0
 65
     1
110
0.0
120
0.0
130
0.0
111
1.0
121
0.0
131
0.0
112
0.0
122
1.0
132
0.0
 79
     0
146
0.0
  0
ENDTAB
  0
TABLE
  2
LTYPE
  5
5
330
0
100
AcDbSymbolTable
 70
     8
  0
LTYPE
  5
14
330
5
100
AcDbSymbolTableRecord
100
AcDbLinetypeTableRecord
  2
ByBlock
 70
     0
  3

 72
    65
 73
     0
 40
0.0
  0
LTYPE
  5
15
330
5
100
AcDbSymbolTableRecord
100
AcDbLinetypeTableRecord
  2
ByLayer
 70
     0
  3

 72
    65
 73
     0
 40
0.0
  0
LTYPE
  5
16
330
5
100
AcDbSymbolTableRecord
100
AcDbLinetypeTableRecord
  2
Continuous
 70
     0
  3
Solid line
 72
    65
 73
     0
 40
0.0
  0
LTYPE
  5
3F
330
5
100
AcDbSymbolTableRecord
100
AcDbLinetypeTableRecord
  2
DASHED
 70
     0
  3
Dashed
 72
    65
 73
     2
 40
15.0
 49
7.0
 74
     0
 49
-8.0
 74
     0
  0
LTYPE
  5
40
330
5
100
AcDbSymbolTableRecord
100
AcDbLinetypeTableRecord
  2
DOTTED
 70
     0
  3
Dotted
 72
    65
 73
     2
 40
1.0
 49
0.0
 74
     0
 49
-1.0
 74
     0
  0
LTYPE
  5
41
330
5
100
AcDbSymbolTableRecord
100
AcDbLinetypeTableRecord
  2
DOT_CENTER
 70
     0
  3
Dot_Center
 72
    65
 73
     4
 40
14.0
 49
12.0
 74
     0
 49
-1.0
 74
     0
 49
0.0
 74
     0
 49
-1.0
 74
     0
  0
LTYPE
  5
42
330
5
100
AcDbSymbolTableRecord
100
AcDbLinetypeTableRecord
  2
LONG_DASHED
 70
     0
  3
Long_Dashed
 72
    65
 73
     2
 40
15.0
 49
10.0
 74
     0
 49
-5.0
 74
     0
  0
LTYPE
  5
43
330
5
100
AcDbSymbolTableRecord
100
AcDbLinetypeTableRecord
  2
DASH_CENTER
 70
     0
  3
Dash_Center
 72
    65
 73
     4
 40
14.0
 49
11.0
 74
     0
 49
-1.0
 74
     0
 49
1.0
 74
     0
 49
-1.0
 74
     0
  0
LTYPE
  5
44
330
5
100
AcDbSymbolTableRecord
100
AcDbLinetypeTableRecord
  2
PHANTOM
 70
     0
  3
Phantom
 72
    65
 73
     6
 40
13.0
 49
10.0
 74
     0
 49
-1.0
 74
     0
 49
0.0
 74
     0
 49
-1.0
 74
     0
 49
0.0
 74
     0
 49
-1.0
 74
     0
  0
LTYPE
  5
45
330
5
100
AcDbSymbolTableRecord
100
AcDbLinetypeTableRecord
  2
CENTER_DASH_DASH
 70
     0
  3
Center_Dash_Dash
 72
    65
 73
     6
 40
14.0
 49
9.0
 74
     0
 49
-1.0
 74
     0
 49
1.0
 74
     0
 49
-1.0
 74
     0
 49
1.0
 74
     0
 49
-1.0
 74
     0
  0
ENDTAB
  0
TABLE
  2
LAYER
  5
2
330
0
100
AcDbSymbolTable
 70
     3
  0
LAYER
  5
10
330
2
100
AcDbSymbolTableRecord
100
AcDbLayerTableRecord
  2
0
 70
     0
 62
     7
  6
Continuous
370
    -3
390
F
  0
LAYER
  5
46
330
2
100
AcDbSymbolTableRecord
100
AcDbLayerTableRecord
  2
1
 70
     0
 62
     7
  6
Continuous
370
    -3
390
F
  0
LAYER
  5
47
330
2
100
AcDbSymbolTableRecord
100
AcDbLayerTableRecord
  2
Symbole_TC_020513_DIN_
 70
     0
 62
     7
  6
Continuous
370
    -3
390
F
  0
ENDTAB
  0
TABLE
  2
STYLE
  5
3
330
0
100
AcDbSymbolTable
 70
     7
  0
STYLE
  5
11
330
3
100
AcDbSymbolTableRecord
100
AcDbTextStyleTableRecord
  2
Standard
 70
     0
 40
0.0
 41
1.0
 50
0.0
 71
     0
 42
0.2
  3
txt
  4

  0
STYLE
  5
8F
330
3
100
AcDbSymbolTableRecord
100
AcDbTextStyleTableRecord
  2
CONVERTER_11
 70
     0
 40
0.0
 41
1.2
 50
0.0
 71
     0
 42
0.2
  3
ARIAL.TTF
  4

  0
STYLE
  5
92
330
3
100
AcDbSymbolTableRecord
100
AcDbTextStyleTableRecord
  2
CONVERTER_12
 70
     0
 40
0.0
 41
1.38
 50
0.0
 71
     0
 42
0.2
  3
ARIAL.TTF
  4

  0
STYLE
  5
42E
330
3
100
AcDbSymbolTableRecord
100
AcDbTextStyleTableRecord
  2
CONVERTER_13
 70
     0
 40
0.0
 41
0.95
 50
0.0
 71
     0
 42
0.2
  3
simplex.shx
  4

  0
STYLE
  5
437
330
3
100
AcDbSymbolTableRecord
100
AcDbTextStyleTableRecord
  2
CONVERTER_14
 70
     0
 40
0.0
 41
0.8835
 50
0.0
 71
     0
 42
0.2
  3
simplex.shx
  4

  0
STYLE
  5
439
330
3
100
AcDbSymbolTableRecord
100
AcDbTextStyleTableRecord
  2
CONVERTER_15
 70
     0
 40
0.0
 41
1.045
 50
0.0
 71
     0
 42
0.2
  3
simplex.shx
  4

  0
STYLE
  5
441
330
3
100
AcDbSymbolTableRecord
100
AcDbTextStyleTableRecord
  2
CONVERTER_16
 70
     0
 40
0.0
 41
1.6
 50
0.0
 71
     0
 42
0.2
  3
ARIAL.TTF
  4

  0
ENDTAB
  0
TABLE
  2
VIEW
  5
6
330
0
100
AcDbSymbolTable
 70
     0
  0
ENDTAB
  0
TABLE
  2
UCS
  5
7
330
0
100
AcDbSymbolTable
 70
     0
  0
ENDTAB
  0
TABLE
  2
APPID
  5
9
330
0
100
AcDbSymbolTable
 70
     1
  0
APPID
  5
12
330
9
100
AcDbSymbolTableRecord
100
AcDbRegAppTableRecord
  2
ACAD
 70
     0
  0
ENDTAB
  0
TABLE
  2
DIMSTYLE
  5
A
330
0
100
AcDbSymbolTable
 70
     7
100
AcDbDimStyleTable
  0
DIMSTYLE
105
27
330
A
100
AcDbSymbolTableRecord
100
AcDbDimStyleTableRecord
  2
Standard
 70
     0
178
     0
340
11
  0
DIMSTYLE
105
44F
102
{ACAD_REACTORS
330
450
102
}
330
A
100
AcDbSymbolTableRecord
100
AcDbDimStyleTableRecord
  2
ME10_DIM_10
 70
     0
 41
3.0
 42
0.5
 44
1.0
 77
     1
 78
     8
140
3.0
147
2.0
172
     1
173
     1
174
     1
175
     1
176
     2
177
     2
271
     2
178
     4
271
     2
340
42E
  0
DIMSTYLE
105
45A
102
{ACAD_REACTORS
330
45B
102
}
330
A
100
AcDbSymbolTableRecord
100
AcDbDimStyleTableRecord
  2
ME10_DIM_11
 70
     0
 41
3.0
 42
0.5
 44
1.0
 77
     1
 78
     8
140
3.0
147
2.0
172
     1
173
     1
174
     1
175
     1
176
     2
177
     2
271
     2
178
     4
271
     2
340
42E
  0
DIMSTYLE
105
465
102
{ACAD_REACTORS
330
466
102
}
330
A
100
AcDbSymbolTableRecord
100
AcDbDimStyleTableRecord
  2
ME10_DIM_12
 70
     0
 41
3.0
 42
0.5
 44
1.0
 77
     1
 78
     8
140
3.0
147
2.0
172
     1
173
     1
174
     1
175
     1
176
     2
177
     2
271
     2
178
     4
271
     2
340
42E
  0
DIMSTYLE
105
470
102
{ACAD_REACTORS
330
471
102
}
330
A
100
AcDbSymbolTableRecord
100
AcDbDimStyleTableRecord
  2
ME10_DIM_13
 70
     0
 41
3.0
 42
0.5
 44
1.0
 77
     1
 78
     8
140
3.0
147
2.0
172
     1
173
     1
174
     1
175
     1
176
     2
177
     2
271
     2
178
     4
271
     2
340
42E
  0
DIMSTYLE
105
47B
102
{ACAD_REACTORS
330
47C
102
}
330
A
100
AcDbSymbolTableRecord
100
AcDbDimStyleTableRecord
  2
ME10_DIM_14
 70
     0
 41
3.0
 42
0.5
 44
1.0
 77
     1
 78
     8
140
3.0
147
2.0
172
     1
173
     1
174
     1
175
     1
176
     2
177
     2
271
     2
178
     4
271
     2
340
42E
  0
DIMSTYLE
105
486
102
{ACAD_REACTORS
330
487
102
}
330
A
100
AcDbSymbolTableRecord
100
AcDbDimStyleTableRecord
  2
ME10_DIM_15
 70
     0
 41
3.0
 42
0.5
 44
1.0
 77
     1
 78
     8
140
3.0
147
2.0
172
     1
173
     1
174
     1
175
     1
176
     2
177
     2
271
     2
178
     4
271
     2
340
42E
  0
ENDTAB
  0
TABLE
  2
BLOCK_RECORD
  5
1
330
0
100
AcDbSymbolTable
 70
     8
  0
BLOCK_RECORD
  5
1F
330
1
100
AcDbSymbolTableRecord
100
AcDbBlockTableRecord
  2
*Model_Space
340
22
  0
BLOCK_RECORD
  5
1B
330
1
100
AcDbSymbolTableRecord
100
AcDbBlockTableRecord
  2
*Paper_Space
340
1E
  0
BLOCK_RECORD
  5
23
330
1
100
AcDbSymbolTableRecord
100
AcDbBlockTableRecord
  2
*Paper_Space0
340
26
  0
BLOCK_RECORD
  5
48
330
1
100
AcDbSymbolTableRecord
100
AcDbBlockTableRecord
  2
_formato_A4
340
0
102
{BLKREFS
331
4B
102
}
  0
BLOCK_RECORD
  5
445
330
1
100
AcDbSymbolTableRecord
100
AcDbBlockTableRecord
  2
*D2
340
0
  0
BLOCK_RECORD
  5
451
330
1
100
AcDbSymbolTableRecord
100
AcDbBlockTableRecord
  2
*D3
340
0
  0
BLOCK_RECORD
  5
45C
330
1
100
AcDbSymbolTableRecord
100
AcDbBlockTableRecord
  2
*D4
340
0
  0
BLOCK_RECORD
  5
467
330
1
100
AcDbSymbolTableRecord
100
AcDbBlockTableRecord
  2
*D5
340
0
  0
BLOCK_RECORD
  5
472
330
1
100
AcDbSymbolTableRecord
100
AcDbBlockTableRecord
  2
*D6
340
0
  0
BLOCK_RECORD
  5
47D
330
1
100
AcDbSymbolTableRecord
100
AcDbBlockTableRecord
  2
*D7
340
0
  0
ENDTAB
  0
ENDSEC
  0
SECTION
  2
BLOCKS
  0
BLOCK
  5
20
330
1F
100
AcDbEntity
  8
0
100
AcDbBlockBegin
  2
*Model_Space
 70
     0
 10
0.0
 20
0.0
 30
0.0
  3
*Model_Space
  1

  0
ENDBLK
  5
21
330
1F
100
AcDbEntity
  8
0
100
AcDbBlockEnd
  0
BLOCK
  5
1C
330
1B
100
AcDbEntity
 67
     1
  8
0
100
AcDbBlockBegin
  2
*Paper_Space
 70
     0
 10
0.0
 20
0.0
 30
0.0
  3
*Paper_Space
  1

  0
ENDBLK
  5
1D
330
1B
100
AcDbEntity
 67
     1
  8
0
100
AcDbBlockEnd
  0
BLOCK
  5
24
330
23
100
AcDbEntity
  8
0
100
AcDbBlockBegin
  2
*Paper_Space0
 70
     0
 10
0.0
 20
0.0
 30
0.0
  3
*Paper_Space0
  1

  0
ENDBLK
  5
25
330
23
100
AcDbEntity
  8
0
100
AcDbBlockEnd
  0
BLOCK
  5
49
330
48
100
AcDbEntity
  8
0
100
AcDbBlockBegin
  2
_formato_A4
 70
     0
 10
0.0
 20
0.0
 30
0.0
  3
_formato_A4
  1

  0
LINE
  5
4C
330
48
100
AcDbEntity
  8
1
  6
Continuous
 62
     7
100
AcDbLine
 10
-189.0
 20
9.99999999999986
 30
0.0
 11
-159.0
 21
9.99999999999986
 31
0.0
  0
LINE
  5
4D
330
48
100
AcDbEntity
  8
1
  6
Continuous
 62
     7
100
AcDbLine
 10
-189.0
 20
14.99999999999989
 30
0.0
 11
-159.0
 21
14.99999999999989
 31
0.0
  0
LINE
  5
4E
330
48
100
AcDbEntity
  8
1
  6
Continuous
 62
     7
100
AcDbLine
 10
-49.0
 20
20.0
 30
0.0
 11
-49.0
 21
5.0
 31
0.0
  0
LINE
  5
4F
330
48
100
AcDbEntity
  8
1
  6
Continuous
 62
     7
100
AcDbLine
 10
-31.64739862251463
 20
20.0
 30
0.0
 11
-31.64739862251463
 21
5.0
 31
0.0
  0
LINE
  5
50
330
48
100
AcDbEntity
  8
1
  6
Continuous
 62
     7
100
AcDbLine
 10
-159.0
 20
20.0
 30
0.0
 11
-159.0
 21
5.0
 31
0.0
  0
LINE
  5
51
330
48
100
AcDbEntity
  8
1
  6
Continuous
 62
     7
100
AcDbLine
 10
-148.5000000000003
 20
210.0000000000001
 30
0.0
 11
-148.5000000000003
 21
195.0000000000001
 31
0.0
  0
LINE
  5
52
330
48
100
AcDbEntity
  8
1
  6
Continuous
 62
     7
100
AcDbLine
 10
-297.0000000000001
 20
0.0
 30
0.0
 11
0.0
 21
0.0
 31
0.0
  0
LINE
  5
53
330
48
100
AcDbEntity
  8
1
  6
Continuous
 62
     7
100
AcDbLine
 10
-297.0000000000001
 20
210.0000000000001
 30
0.0
 11
-297.0000000000001
 21
0.0
 31
0.0
  0
LINE
  5
54
330
48
100
AcDbEntity
  8
1
  6
Continuous
 62
     7
100
AcDbLine
 10
0.0
 20
210.0000000000001
 30
0.0
 11
-297.0000000000001
 21
210.0000000000001
 31
0.0
  0
LINE
  5
55
330
48
100
AcDbEntity
  8
1
  6
Continuous
 62
     7
100
AcDbLine
 10
0.0
 20
0.0
 30
0.0
 11
0.0
 21
210.0000000000001
 31
0.0
  0
LINE
  5
56
330
48
100
AcDbEntity
  8
1
  6
Continuous
 62
     7
100
AcDbLine
 10
-292.0000000000002
 20
5.0
 30
0.0
 11
-5.0
 21
5.0
 31
0.0
  0
LINE
  5
57
330
48
100
AcDbEntity
  8
1
  6
Continuous
 62
     7
100
AcDbLine
 10
-5.0
 20
5.0
 30
0.0
 11
-5.0
 21
189.0
 31
0.0
  0
LINE
  5
58
330
48
100
AcDbEntity
  8
1
  6
Continuous
 62
     7
100
AcDbLine
 10
-5.0
 20
189.0
 30
0.0
 11
-292.0000000000002
 21
189.0
 31
0.0
  0
LINE
  5
59
102
{ACAD_REACTORS
330
99
102
}
330
48
100
AcDbEntity
  8
1
  6
Continuous
 62
     7
100
AcDbLine
 10
-15.99036597792394
 20
10.07749983983263
 30
0.0
 11
-15.99036597792394
 21
14.92250016016737
 31
0.0
  0
LINE
  5
5A
102
{ACAD_REACTORS
330
96
102
}
330
48
100
AcDbEntity
  8
1
  6
Continuous
 62
     7
100
AcDbLine
 10
-17.32369931125732
 20
12.5
 30
0.0
 11
-17.32369931125732
 21
14.23205080756884
 31
0.0
  0
LINE
  5
5B
102
{ACAD_REACTORS
330
96
102
}
330
48
100
AcDbEntity
  8
1
  6
Continuous
 62
     7
100
AcDbLine
 10
-17.32369931125732
 20
14.23205080756884
 30
0.0
 11
-18.17936174395993
 21
12.75
 31
0.0
  0
LINE
  5
5C
102
{ACAD_REACTORS
330
96
102
}
330
48
100
AcDbEntity
  8
1
  6
Continuous
 62
     7
100
AcDbLine
 10
-18.46803687855481
 20
12.75
 30
0.0
 11
-19.32369931125732
 21
14.23205080756884
 31
0.0
  0
LINE
  5
5D
102
{ACAD_REACTORS
330
96
102
}
330
48
100
AcDbEntity
  8
1
  6
Continuous
 62
     7
100
AcDbLine
 10
-19.32369931125732
 20
14.23205080756884
 30
0.0
 11
-19.32369931125732
 21
12.5
 31
0.0
  0
LINE
  5
5E
330
48
100
AcDbEntity
  8
1
  6
Continuous
 62
     7
100
AcDbLine
 10
-26.74013458639888
 20
12.64436426434133
 30
0.0
 11
-18.32369931125732
 21
17.5
 31
0.0
  0
LINE
  5
5F
330
48
100
AcDbEntity
  8
1
  6
Continuous
 62
     7
100
AcDbLine
 10
-18.32369931125732
 20
17.5
 30
0.0
 11
-9.90726403611586
 21
12.64436426434133
 31
0.0
  0
LINE
  5
60
330
48
100
AcDbEntity
  8
1
  6
Continuous
 62
     7
100
AcDbLine
 10
-9.90726403611586
 20
12.35563573565855
 30
0.0
 11
-18.32369931125732
 21
7.5
 31
0.0
  0
LINE
  5
61
330
48
100
AcDbEntity
  8
1
  6
Continuous
 62
     7
100
AcDbLine
 10
-18.32369931125732
 20
7.5
 30
0.0
 11
-26.74013458639888
 21
12.35563573565855
 31
0.0
  0
LINE
  5
62
102
{ACAD_REACTORS
330
96
102
}
330
48
100
AcDbEntity
  8
1
  6
Continuous
 62
     7
100
AcDbLine
 10
-19.99036597792406
 20
12.5
 30
0.0
 11
-19.99036597792406
 21
15.73121731203457
 31
0.0
  0
LINE
  5
63
102
{ACAD_REACTORS
330
96
102
}
330
48
100
AcDbEntity
  8
1
  6
Continuous
 62
     7
100
AcDbLine
 10
-19.49593229430059
 20
15.86370041827229
 30
0.0
 11
-18.32369931125732
 21
13.83333333333326
 31
0.0
  0
LINE
  5
64
102
{ACAD_REACTORS
330
96
102
}
330
48
100
AcDbEntity
  8
1
  6
Continuous
 62
     7
100
AcDbLine
 10
-19.99036597792406
 20
12.5
 30
0.0
 11
-19.99036597792406
 21
10.84758507263291
 31
0.0
  0
LINE
  5
65
102
{ACAD_REACTORS
330
96
102
}
330
48
100
AcDbEntity
  8
1
  6
Continuous
 62
     7
100
AcDbLine
 10
-19.32369931125732
 20
10.84758507263291
 30
0.0
 11
-19.32369931125732
 21
12.5
 31
0.0
  0
LINE
  5
66
102
{ACAD_REACTORS
330
96
102
}
330
48
100
AcDbEntity
  8
1
  6
Continuous
 62
     7
100
AcDbLine
 10
-17.32369931125732
 20
12.5
 30
0.0
 11
-17.32369931125732
 21
9.3082690706018
 31
0.0
  0
LINE
  5
67
102
{ACAD_REACTORS
330
96
102
}
330
48
100
AcDbEntity
  8
1
  6
Continuous
 62
     7
100
AcDbLine
 10
-16.65703264459069
 20
9.3082690706018
 30
0.0
 11
-16.65703264459069
 21
15.73121731203457
 31
0.0
  0
LINE
  5
68
102
{ACAD_REACTORS
330
96
102
}
330
48
100
AcDbEntity
  8
1
  6
Continuous
 62
     7
100
AcDbLine
 10
-17.15146632821404
 20
15.86370041827229
 30
0.0
 11
-18.32369931125732
 21
13.83333333333326
 31
0.0
  0
LINE
  5
69
102
{ACAD_REACTORS
330
97
102
}
330
48
100
AcDbEntity
  8
1
  6
Continuous
 62
     7
100
AcDbLine
 10
-21.32369931125732
 20
10.27002114803258
 30
0.0
 11
-21.32369931125732
 21
14.92250016016737
 31
0.0
  0
LINE
  5
6A
102
{ACAD_REACTORS
330
97
102
}
330
48
100
AcDbEntity
  8
1
  6
Continuous
 62
     7
100
AcDbLine
 10
-20.65703264459069
 20
14.92250016016737
 30
0.0
 11
-20.65703264459069
 21
10.2700211480327
 31
0.0
  0
LINE
  5
6B
102
{ACAD_REACTORS
330
97
102
}
330
48
100
AcDbEntity
  8
1
  6
Continuous
 62
     7
100
AcDbLine
 10
-20.65703264459069
 20
10.2700211480327
 30
0.0
 11
-18.49045849342747
 21
9.0200745223616
 31
0.0
  0
LINE
  5
6C
102
{ACAD_REACTORS
330
97
102
}
330
48
100
AcDbEntity
  8
1
  6
Continuous
 62
     7
100
AcDbLine
 10
-18.8236067957539
 20
8.44261746499581
 30
0.0
 11
-20.99018094691701
 21
9.69256409066691
 31
0.0
  0
LINE
  5
6D
102
{ACAD_REACTORS
330
98
102
}
330
48
100
AcDbEntity
  8
1
  6
Continuous
 62
     7
100
AcDbLine
 10
-21.99036597792406
 20
14.15326939093666
 30
0.0
 11
-21.99036597792406
 21
11.0392519172633
 31
0.0
  0
LINE
  5
6E
102
{ACAD_REACTORS
330
98
102
}
330
48
100
AcDbEntity
  8
1
  6
Continuous
 62
     7
100
AcDbLine
 10
-21.99036597792406
 20
11.0392519172633
 30
0.0
 11
-21.99036597792406
 21
10.84673060906323
 31
0.0
  0
LINE
  5
6F
102
{ACAD_REACTORS
330
98
102
}
330
48
100
AcDbEntity
  8
1
  6
Continuous
 62
     7
100
AcDbLine
 10
-22.65703264459069
 20
10.84673060906323
 30
0.0
 11
-22.65703264459069
 21
14.15326939093666
 31
0.0
  0
LINE
  5
70
102
{ACAD_REACTORS
330
99
102
}
330
48
100
AcDbEntity
  8
1
  6
Continuous
 62
     7
100
AcDbLine
 10
-15.49045849342747
 20
15.21122868885027
 30
0.0
 11
-14.15712516009421
 21
14.44199791961944
 31
0.0
  0
LINE
  5
71
102
{ACAD_REACTORS
330
99
102
}
330
48
100
AcDbEntity
  8
1
  6
Continuous
 62
     7
100
AcDbLine
 10
-14.49027346242053
 20
13.86454086225376
 30
0.0
 11
-15.32369931125732
 21
14.34536346735195
 31
0.0
  0
LINE
  5
72
102
{ACAD_REACTORS
330
99
102
}
330
48
100
AcDbEntity
  8
1
  6
Continuous
 62
     7
100
AcDbLine
 10
-15.32369931125732
 20
14.34536346735195
 30
0.0
 11
-15.32369931125732
 21
12.83333333333326
 31
0.0
  0
LINE
  5
73
102
{ACAD_REACTORS
330
99
102
}
330
48
100
AcDbEntity
  8
1
  6
Continuous
 62
     7
100
AcDbLine
 10
-15.32369931125732
 20
12.83333333333326
 30
0.0
 11
-14.32369931125732
 21
12.83333333333326
 31
0.0
  0
LINE
  5
74
102
{ACAD_REACTORS
330
99
102
}
330
48
100
AcDbEntity
  8
1
  6
Continuous
 62
     7
100
AcDbLine
 10
-14.32369931125732
 20
12.16666666666663
 30
0.0
 11
-15.32369931125732
 21
12.16666666666663
 31
0.0
  0
LINE
  5
75
102
{ACAD_REACTORS
330
99
102
}
330
48
100
AcDbEntity
  8
1
  6
Continuous
 62
     7
100
AcDbLine
 10
-15.32369931125732
 20
12.16666666666663
 30
0.0
 11
-15.32369931125732
 21
10.65463653264794
 31
0.0
  0
LINE
  5
76
102
{ACAD_REACTORS
330
99
102
}
330
48
100
AcDbEntity
  8
1
  6
Continuous
 62
     7
100
AcDbLine
 10
-15.32369931125732
 20
10.65463653264794
 30
0.0
 11
-14.49027346242053
 21
11.13545913774624
 31
0.0
  0
LINE
  5
77
102
{ACAD_REACTORS
330
99
102
}
330
48
100
AcDbEntity
  8
1
  6
Continuous
 62
     7
100
AcDbLine
 10
-14.15712516009421
 20
10.55800208038033
 30
0.0
 11
-15.49045849342747
 21
9.78877131114973
 31
0.0
  0
LINE
  5
78
330
48
100
AcDbEntity
  8
1
  6
Continuous
 62
     7
100
AcDbLine
 10
-189.0
 20
25.0
 30
0.0
 11
-5.0
 21
25.0
 31
0.0
  0
LINE
  5
79
330
48
100
AcDbEntity
  8
1
  6
Continuous
 62
     7
100
AcDbLine
 10
-182.0
 20
20.0
 30
0.0
 11
-182.0
 21
25.0
 31
0.0
  0
LINE
  5
7A
330
48
100
AcDbEntity
  8
1
  6
Continuous
 62
     7
100
AcDbLine
 10
-163.9999999999999
 20
20.0
 30
0.0
 11
-163.9999999999999
 21
25.0
 31
0.0
  0
LINE
  5
7B
330
48
100
AcDbEntity
  8
1
  6
Continuous
 62
     7
100
AcDbLine
 10
-292.0000000000002
 20
189.0
 30
0.0
 11
-292.0000000000002
 21
5.0
 31
0.0
  0
LINE
  5
7C
330
48
100
AcDbEntity
  8
1
  6
Continuous
 62
     7
100
AcDbLine
 10
-189.0
 20
20.0
 30
0.0
 11
-5.0
 21
20.0
 31
0.0
  0
LINE
  5
7D
330
48
100
AcDbEntity
  8
1
  6
Continuous
 62
     7
100
AcDbLine
 10
-189.0
 20
4.99999999999989
 30
0.0
 11
-189.0
 21
25.0
 31
0.0
  0
ARC
  5
7E
102
{ACAD_REACTORS
330
96
102
}
330
48
100
AcDbEntity
  8
1
  6
Continuous
 62
     7
100
AcDbCircle
 10
-19.72539976544874
 20
15.73121731203457
 30
0.0
 40
0.2649662124753284
100
AcDbArc
 50
30.00000000001384
 51
180.0
  0
ARC
  5
7F
102
{ACAD_REACTORS
330
96
102
}
330
48
100
AcDbEntity
  8
1
  6
Continuous
 62
     7
100
AcDbCircle
 10
-19.65703264459069
 20
10.84758507263291
 30
0.0
 40
0.3333333333333712
100
AcDbArc
 50
180.0
 51
0.0
  0
ARC
  5
80
102
{ACAD_REACTORS
330
96
102
}
330
48
100
AcDbEntity
  8
1
  6
Continuous
 62
     7
100
AcDbCircle
 10
-16.99036597792394
 20
9.3082690706018
 30
0.0
 40
0.3333333333333819
100
AcDbArc
 50
180.0
 51
0.0
  0
ARC
  5
81
102
{ACAD_REACTORS
330
96
102
}
330
48
100
AcDbEntity
  8
1
  6
Continuous
 62
     7
100
AcDbCircle
 10
-16.921998857066
 20
15.73121731203457
 30
0.0
 40
0.2649662124753114
100
AcDbArc
 50
0.0
 51
149.9999999999743
  0
ARC
  5
82
102
{ACAD_REACTORS
330
97
102
}
330
48
100
AcDbEntity
  8
1
  6
Continuous
 62
     7
100
AcDbCircle
 10
-20.99036597792406
 20
14.92250016016737
 30
0.0
 40
0.3333333333333712
100
AcDbArc
 50
0.0
 51
180.0
  0
ARC
  5
83
102
{ACAD_REACTORS
330
97
102
}
330
48
100
AcDbEntity
  8
1
  6
Continuous
 62
     7
100
AcDbCircle
 10
-18.65703264459069
 20
8.7313459936787
 30
0.0
 40
0.3333333333333673
100
AcDbArc
 50
240.0183606311504
 51
60.01836063114937
  0
ARC
  5
84
102
{ACAD_REACTORS
330
98
102
}
330
48
100
AcDbEntity
  8
1
  6
Continuous
 62
     7
100
AcDbCircle
 10
-22.32369931125732
 20
14.15326939093666
 30
0.0
 40
0.3333333333332611
100
AcDbArc
 50
0.0
 51
180.0
  0
ARC
  5
85
102
{ACAD_REACTORS
330
98
102
}
330
48
100
AcDbEntity
  8
1
  6
Continuous
 62
     7
100
AcDbCircle
 10
-22.32369931125732
 20
10.84673060906323
 30
0.0
 40
0.3333333333333677
100
AcDbArc
 50
180.0
 51
0.0
  0
ARC
  5
86
102
{ACAD_REACTORS
330
99
102
}
330
48
100
AcDbEntity
  8
1
  6
Continuous
 62
     7
100
AcDbCircle
 10
-14.32369931125732
 20
14.15326939093666
 30
0.0
 40
0.333333333333372
100
AcDbArc
 50
240.0183606311508
 51
60.01836063115558
  0
ARC
  5
87
102
{ACAD_REACTORS
330
99
102
}
330
48
100
AcDbEntity
  8
1
  6
Continuous
 62
     7
100
AcDbCircle
 10
-14.32369931125732
 20
12.5
 30
0.0
 40
0.3333333333333695
100
AcDbArc
 50
270.0
 51
90.0
  0
ARC
  5
88
102
{ACAD_REACTORS
330
99
102
}
330
48
100
AcDbEntity
  8
1
  6
Continuous
 62
     7
100
AcDbCircle
 10
-14.32369931125732
 20
10.84673060906323
 30
0.0
 40
0.3333333333333198
100
AcDbArc
 50
299.9816393688342
 51
119.9816393688397
  0
ARC
  5
89
102
{ACAD_REACTORS
330
96
102
}
330
48
100
AcDbEntity
  8
1
  6
Continuous
 62
     7
100
AcDbCircle
 10
-18.32369931125732
 20
12.83333333333326
 30
0.0
 40
0.1666666666666997
100
AcDbArc
 50
209.999999999964
 51
330.0000000000195
  0
ARC
  5
8A
102
{ACAD_REACTORS
330
97
102
}
330
48
100
AcDbEntity
  8
1
  6
Continuous
 62
     7
100
AcDbCircle
 10
-20.65703264459069
 20
10.2700211480327
 30
0.0
 40
0.6666666666666323
100
AcDbArc
 50
180.0000000000104
 51
240.018360631158
  0
ARC
  5
8B
330
48
100
AcDbEntity
  8
1
  6
Continuous
 62
     7
100
AcDbCircle
 10
-26.65684751081722
 20
12.5
 30
0.0
 40
0.1666666666666105
100
AcDbArc
 50
119.9816393688866
 51
240.0183606311338
  0
ARC
  5
8C
330
48
100
AcDbEntity
  8
1
  6
Continuous
 62
     7
100
AcDbCircle
 10
-9.99055111169741
 20
12.5
 30
0.0
 40
0.1666666666666586
100
AcDbArc
 50
299.9816393688334
 51
60.01836063114615
  0
ARC
  5
8D
102
{ACAD_REACTORS
330
99
102
}
330
48
100
AcDbEntity
  8
1
  6
Continuous
 62
     7
100
AcDbCircle
 10
-15.65703264459069
 20
14.92250016016737
 30
0.0
 40
0.3333333333333749
100
AcDbArc
 50
60.01836063114941
 51
180.0
  0
ARC
  5
8E
102
{ACAD_REACTORS
330
99
102
}
330
48
100
AcDbEntity
  8
1
  6
Continuous
 62
     7
100
AcDbCircle
 10
-15.65703264459069
 20
10.07749983983263
 30
0.0
 40
0.3333333333332504
100
AcDbArc
 50
180.0
 51
299.9816393688506
  0
MTEXT
  5
90
330
48
100
AcDbEntity
  8
1
 62
     7
100
AcDbMText
 10
-188.0
 20
7.49999999999987
 30
0.0
 40
3.0
 41
0.0
 71
     4
 72
     1
  1
Sign.
  7
CONVERTER_11
 73
     1
 44
1.32052821128451
  0
MTEXT
  5
91
330
48
100
AcDbEntity
  8
1
 62
     7
100
AcDbMText
 10
-188.0
 20
12.49999999999987
 30
0.0
 40
3.0
 41
0.0
 71
     4
 72
     1
  1
Date
  7
CONVERTER_11
 73
     1
 44
1.32052821128451
  0
MTEXT
  5
93
330
48
100
AcDbEntity
  8
1
 62
     7
100
AcDbMText
 10
-174.0
 20
17.49999999999994
 30
0.0
 40
2.5
 41
0.0
 71
     5
 72
     1
  1
dimensions in mm
  7
CONVERTER_12
 73
     1
 44
0.60024009603842
  0
MTEXT
  5
94
330
48
100
AcDbEntity
  8
1
 62
     7
100
AcDbMText
 10
-145.5000000000003
 20
194.0000000000001
 30
0.0
 40
4.0
 41
0.0
 71
     5
 72
     1
  1
Diritti riservati      All rights reserved
  7
CONVERTER_11
 73
     1
 44
1.32052821128451
  0
MTEXT
  5
95
330
48
100
AcDbEntity
  8
1
 62
     7
100
AcDbMText
 10
-40.32369931125732
 20
16.26063942075598
 30
0.0
 40
3.0
 41
0.0
 71
     5
 72
     1
  1
Scale
  7
CONVERTER_11
 73
     1
 44
1.32052821128451
  0
HATCH
  5
96
330
48
100
AcDbEntity
  8
1
  6
Continuous
 62
     7
100
AcDbHatch
 10
0.0
 20
0.0
 30
0.0
210
0.0
220
0.0
230
1.0
  2
SOLID
 70
     1
 71
     1
 91
        1
 92
        1
 93
       16
 72
     2
 10
-19.72539976544874
 20
15.73121731203457
 40
0.2649662124753284
 50
30.00000000001384
 51
180.0
 73
     1
 72
     1
 10
-19.99036597792406
 20
15.73121731203457
 11
-19.99036597792406
 21
12.5
 72
     1
 10
-19.99036597792406
 20
12.5
 11
-19.99036597792406
 21
10.84758507263291
 72
     2
 10
-19.65703264459069
 20
10.84758507263291
 40
0.3333333333333712
 50
180.0
 51
360.0
 73
     1
 72
     1
 10
-19.32369931125732
 20
10.84758507263291
 11
-19.32369931125732
 21
12.5
 72
     1
 10
-19.32369931125732
 20
12.5
 11
-19.32369931125732
 21
14.23205080756884
 72
     1
 10
-19.32369931125732
 20
14.23205080756884
 11
-18.46803687855481
 21
12.75
 72
     2
 10
-18.32369931125732
 20
12.83333333333326
 40
0.1666666666666997
 50
209.999999999964
 51
330.0000000000195
 73
     1
 72
     1
 10
-18.17936174395993
 20
12.75
 11
-17.32369931125732
 21
14.23205080756884
 72
     1
 10
-17.32369931125732
 20
14.23205080756884
 11
-17.32369931125732
 21
12.5
 72
     1
 10
-17.32369931125732
 20
12.5
 11
-17.32369931125732
 21
9.308269070601796
 72
     2
 10
-16.99036597792394
 20
9.308269070601796
 40
0.3333333333333819
 50
180.0
 51
360.0
 73
     1
 72
     1
 10
-16.65703264459069
 20
9.308269070601796
 11
-16.65703264459069
 21
15.73121731203457
 72
     2
 10
-16.921998857066
 20
15.73121731203457
 40
0.2649662124753114
 50
0.0
 51
149.9999999999743
 73
     1
 72
     1
 10
-17.15146632821404
 20
15.86370041827229
 11
-18.32369931125732
 21
13.83333333333326
 72
     1
 10
-18.32369931125732
 20
13.83333333333326
 11
-19.49593229430059
 21
15.86370041827229
 97
       16
330
68
330
81
330
67
330
80
330
66
330
5A
330
5B
330
89
330
5C
330
5D
330
65
330
7F
330
64
330
62
330
7E
330
63
 75
     0
 76
     1
 98
        1
 10
0.0
 20
0.0
  0
HATCH
  5
97
330
48
100
AcDbEntity
  8
1
  6
Continuous
 62
     7
100
AcDbHatch
 10
0.0
 20
0.0
 30
0.0
210
0.0
220
0.0
230
1.0
  2
SOLID
 70
     1
 71
     1
 91
        1
 92
        1
 93
        7
 72
     1
 10
-20.65703264459069
 20
14.92250016016737
 11
-20.65703264459069
 21
10.2700211480327
 72
     1
 10
-20.65703264459069
 20
10.2700211480327
 11
-18.49045849342747
 21
9.020074522361597
 72
     2
 10
-18.65703264459069
 20
8.731345993678701
 40
0.3333333333333673
 50
299.9816393688506
 51
479.9816393688495
 73
     0
 72
     1
 10
-18.8236067957539
 20
8.442617464995806
 11
-20.99018094691701
 21
9.692564090666906
 72
     2
 10
-20.65703264459069
 20
10.2700211480327
 40
0.6666666666666323
 50
119.981639368842
 51
179.9999999999896
 73
     0
 72
     1
 10
-21.32369931125732
 20
10.27002114803258
 11
-21.32369931125732
 21
14.92250016016737
 72
     2
 10
-20.99036597792406
 20
14.92250016016737
 40
0.3333333333333712
 50
180.0
 51
360.0
 73
     0
 97
        7
330
6A
330
6B
330
83
330
6C
330
8A
330
69
330
82
 75
     0
 76
     1
 98
        1
 10
0.0
 20
0.0
  0
HATCH
  5
98
330
48
100
AcDbEntity
  8
1
  6
Continuous
 62
     7
100
AcDbHatch
 10
0.0
 20
0.0
 30
0.0
210
0.0
220
0.0
230
1.0
  2
SOLID
 70
     1
 71
     1
 91
        1
 92
        1
 93
        5
 72
     1
 10
-21.99036597792406
 20
14.15326939093666
 11
-21.99036597792406
 21
11.0392519172633
 72
     1
 10
-21.99036597792406
 20
11.0392519172633
 11
-21.99036597792406
 21
10.84673060906323
 72
     2
 10
-22.32369931125732
 20
10.84673060906323
 40
0.3333333333333677
 50
0.0
 51
180.0
 73
     0
 72
     1
 10
-22.65703264459069
 20
10.84673060906323
 11
-22.65703264459069
 21
14.15326939093666
 72
     2
 10
-22.32369931125732
 20
14.15326939093666
 40
0.3333333333332611
 50
180.0
 51
360.0
 73
     0
 97
        5
330
6D
330
6E
330
85
330
6F
330
84
 75
     0
 76
     1
 98
        1
 10
0.0
 20
0.0
  0
HATCH
  5
99
330
48
100
AcDbEntity
  8
1
  6
Continuous
 62
     7
100
AcDbHatch
 10
0.0
 20
0.0
 30
0.0
210
0.0
220
0.0
230
1.0
  2
SOLID
 70
     1
 71
     1
 91
        1
 92
        1
 93
       14
 72
     1
 10
-14.49027346242053
 20
13.86454086225376
 11
-15.32369931125732
 21
14.34536346735195
 72
     1
 10
-15.32369931125732
 20
14.34536346735195
 11
-15.32369931125732
 21
12.83333333333326
 72
     1
 10
-15.32369931125732
 20
12.83333333333326
 11
-14.32369931125732
 21
12.83333333333326
 72
     2
 10
-14.32369931125732
 20
12.5
 40
0.3333333333333695
 50
270.0
 51
450.0
 73
     0
 72
     1
 10
-14.32369931125732
 20
12.16666666666663
 11
-15.32369931125732
 21
12.16666666666663
 72
     1
 10
-15.32369931125732
 20
12.16666666666663
 11
-15.32369931125732
 21
10.65463653264794
 72
     1
 10
-15.32369931125732
 20
10.65463653264794
 11
-14.49027346242053
 21
11.13545913774624
 72
     2
 10
-14.32369931125732
 20
10.84673060906323
 40
0.3333333333333198
 50
240.0183606311603
 51
420.0183606311658
 73
     0
 72
     1
 10
-14.15712516009421
 20
10.55800208038033
 11
-15.49045849342747
 21
9.78877131114973
 72
     2
 10
-15.65703264459069
 20
10.07749983983263
 40
0.3333333333332504
 50
60.01836063114943
 51
180.0
 73
     0
 72
     1
 10
-15.99036597792394
 20
10.07749983983263
 11
-15.99036597792394
 21
14.92250016016737
 72
     2
 10
-15.65703264459069
 20
14.92250016016737
 40
0.3333333333333749
 50
180.0
 51
299.9816393688506
 73
     0
 72
     1
 10
-15.49045849342747
 20
15.21122868885027
 11
-14.15712516009421
 21
14.44199791961944
 72
     2
 10
-14.32369931125732
 20
14.15326939093666
 40
0.333333333333372
 50
299.9816393688444
 51
479.9816393688491
 73
     0
 97
       14
330
70
330
8D
330
59
330
8E
330
77
330
88
330
76
330
75
330
74
330
87
330
73
330
72
330
71
330
86
 75
     0
 76
     1
 98
        1
 10
0.0
 20
0.0
  0
ENDBLK
  5
4A
330
48
100
AcDbEntity
  8
0
100
AcDbBlockEnd
  0
BLOCK
  5
44D
330
445
100
AcDbEntity
  8
0
100
AcDbBlockBegin
  2
*D2
 70
     1
 10
0.0
 20
0.0
 30
0.0
  3
*D2
  1

  0
LINE
  5
446
330
445
100
AcDbEntity
  8
1
  6
Continuous
 62
     2
100
AcDbLine
 10
-9.9791007014828
 20
171.2770591021412
 30
0.0
 11
-9.9791007014828
 21
161.6770591021412
 31
0.0
  0
LINE
  5
447
330
445
100
AcDbEntity
  8
1
  6
Continuous
 62
     2
100
AcDbLine
 10
-9.9791007014828
 20
154.3770591021412
 30
0.0
 11
-9.9791007014828
 21
144.7770591021412
 31
0.0
  0
LINE
  5
448
330
445
100
AcDbEntity
  8
1
  6
Continuous
 62
     2
100
AcDbLine
 10
-22.95
 20
171.2770591021412
 30
0.0
 11
-8.9791007014828
 21
171.2770591021412
 31
0.0
  0
LINE
  5
449
330
445
100
AcDbEntity
  8
1
  6
Continuous
 62
     2
100
AcDbLine
 10
-22.95
 20
144.7770591021412
 30
0.0
 11
-8.9791007014828
 21
144.7770591021412
 31
0.0
  0
SOLID
  5
44A
330
445
100
AcDbEntity
  8
1
 62
     2
100
AcDbTrace
 10
-9.58414320872061
 20
168.2770591021412
 30
0.0
 11
-10.37405819424499
 21
168.2770591021412
 31
0.0
 12
-9.9791007014828
 22
171.2770591021412
 32
0.0
 13
-9.9791007014828
 23
171.2770591021412
 33
0.0
  0
SOLID
  5
44B
330
445
100
AcDbEntity
  8
1
 62
     2
100
AcDbTrace
 10
-10.37405819424499
 20
147.7770591021412
 30
0.0
 11
-9.58414320872061
 21
147.7770591021412
 31
0.0
 12
-9.9791007014828
 22
144.7770591021412
 32
0.0
 13
-9.9791007014828
 23
144.7770591021412
 33
0.0
  0
MTEXT
  5
44C
330
445
100
AcDbEntity
  8
1
 62
     4
100
AcDbMText
 10
-14.1041007014828
 20
156.6770591021412
 30
0.0
 40
3.0
 41
0.0
 71
     7
 72
     1
  1
26,5
  7
CONVERTER_13
 11
0.9999999999970619
 21
2.424068405545306E-6
 31
0.0
 73
     1
 44
0.60024009603842
  0
ENDBLK
  5
44E
330
445
100
AcDbEntity
  8
0
100
AcDbBlockEnd
  0
BLOCK
  5
458
330
451
100
AcDbEntity
  8
0
100
AcDbBlockBegin
  2
*D3
 70
     1
 10
0.0
 20
0.0
 30
0.0
  3
*D3
  1

  0
LINE
  5
452
330
451
100
AcDbEntity
  8
1
  6
Continuous
 62
     2
100
AcDbLine
 10
-46.45
 20
177.864683200685
 30
0.0
 11
-19.95
 21
177.864683200685
 31
0.0
  0
LINE
  5
453
330
451
100
AcDbEntity
  8
1
  6
Continuous
 62
     2
100
AcDbLine
 10
-46.45
 20
168.2770591021412
 30
0.0
 11
-46.45
 21
178.864683200685
 31
0.0
  0
LINE
  5
454
330
451
100
AcDbEntity
  8
1
  6
Continuous
 62
     2
100
AcDbLine
 10
-19.95
 20
168.2770591021412
 30
0.0
 11
-19.95
 21
178.864683200685
 31
0.0
  0
SOLID
  5
455
330
451
100
AcDbEntity
  8
1
 62
     2
100
AcDbTrace
 10
-43.45
 20
178.2596406934472
 30
0.0
 11
-43.45
 21
177.4697257079228
 31
0.0
 12
-46.45
 22
177.864683200685
 32
0.0
 13
-46.45
 23
177.864683200685
 33
0.0
  0
SOLID
  5
456
330
451
100
AcDbEntity
  8
1
 62
     2
100
AcDbTrace
 10
-22.95
 20
177.4697257079228
 30
0.0
 11
-22.95
 21
178.2596406934472
 31
0.0
 12
-19.95
 22
177.864683200685
 32
0.0
 13
-19.95
 23
177.864683200685
 33
0.0
  0
MTEXT
  5
457
330
451
100
AcDbEntity
  8
1
 62
     4
100
AcDbMText
 10
-37.325
 20
180.164683200685
 30
0.0
 40
3.0
 41
0.0
 71
     7
 72
     1
  1
26,5
  7
CONVERTER_13
 11
0.9999999999970619
 21
2.424068405545306E-6
 31
0.0
 73
     1
 44
0.60024009603842
  0
ENDBLK
  5
459
330
451
100
AcDbEntity
  8
0
100
AcDbBlockEnd
  0
BLOCK
  5
463
330
45C
100
AcDbEntity
  8
0
100
AcDbBlockBegin
  2
*D4
 70
     1
 10
0.0
 20
0.0
 30
0.0
  3
*D4
  1

  0
LINE
  5
45D
330
45C
100
AcDbEntity
  8
1
  6
Continuous
 62
     2
100
AcDbLine
 10
-289.7500000000002
 20
178.014683200685
 30
0.0
 11
-254.7500000000002
 21
178.014683200685
 31
0.0
  0
LINE
  5
45E
330
45C
100
AcDbEntity
  8
1
  6
Continuous
 62
     2
100
AcDbLine
 10
-289.7500000000002
 20
160.0270591021412
 30
0.0
 11
-289.7500000000002
 21
179.014683200685
 31
0.0
  0
LINE
  5
45F
330
45C
100
AcDbEntity
  8
1
  6
Continuous
 62
     2
100
AcDbLine
 10
-254.7500000000002
 20
160.0270591021412
 30
0.0
 11
-254.7500000000002
 21
179.014683200685
 31
0.0
  0
SOLID
  5
460
330
45C
100
AcDbEntity
  8
1
 62
     2
100
AcDbTrace
 10
-286.7500000000002
 20
178.4096406934472
 30
0.0
 11
-286.7500000000002
 21
177.6197257079228
 31
0.0
 12
-289.7500000000002
 22
178.014683200685
 32
0.0
 13
-289.7500000000002
 23
178.014683200685
 33
0.0
  0
SOLID
  5
461
330
45C
100
AcDbEntity
  8
1
 62
     2
100
AcDbTrace
 10
-257.7500000000002
 20
177.6197257079228
 30
0.0
 11
-257.7500000000002
 21
178.4096406934472
 31
0.0
 12
-254.7500000000002
 22
178.014683200685
 32
0.0
 13
-254.7500000000002
 23
178.014683200685
 33
0.0
  0
MTEXT
  5
462
330
45C
100
AcDbEntity
  8
1
 62
     4
100
AcDbMText
 10
-274.5000000000002
 20
180.014683200685
 30
0.0
 40
3.0
 41
0.0
 71
     7
 72
     1
  1
35
  7
CONVERTER_13
 11
0.9999999999970619
 21
2.424068405545306E-6
 31
0.0
 73
     1
 44
0.60024009603842
  0
ENDBLK
  5
464
330
45C
100
AcDbEntity
  8
0
100
AcDbBlockEnd
  0
BLOCK
  5
46E
330
467
100
AcDbEntity
  8
0
100
AcDbBlockBegin
  2
*D5
 70
     1
 10
0.0
 20
0.0
 30
0.0
  3
*D5
  1

  0
LINE
  5
468
330
467
100
AcDbEntity
  8
1
  6
Continuous
 62
     2
100
AcDbLine
 10
-251.7500000000004
 20
126.509583661579
 30
0.0
 11
-159.4500000000002
 21
126.509583661579
 31
0.0
  0
LINE
  5
469
330
467
100
AcDbEntity
  8
1
  6
Continuous
 62
     2
100
AcDbLine
 10
-251.7500000000004
 20
105.7270591021412
 30
0.0
 11
-251.7500000000004
 21
127.509583661579
 31
0.0
  0
LINE
  5
46A
330
467
100
AcDbEntity
  8
1
  6
Continuous
 62
     2
100
AcDbLine
 10
-159.4500000000002
 20
110.2270591021412
 30
0.0
 11
-159.4500000000002
 21
127.509583661579
 31
0.0
  0
SOLID
  5
46B
330
467
100
AcDbEntity
  8
1
 62
     2
100
AcDbTrace
 10
-248.7500000000004
 20
126.9045411543412
 30
0.0
 11
-248.7500000000004
 21
126.1146261688168
 31
0.0
 12
-251.7500000000004
 22
126.509583661579
 32
0.0
 13
-251.7500000000004
 23
126.509583661579
 33
0.0
  0
SOLID
  5
46C
330
467
100
AcDbEntity
  8
1
 62
     2
100
AcDbTrace
 10
-162.4500000000002
 20
126.1146261688168
 30
0.0
 11
-162.4500000000002
 21
126.9045411543412
 31
0.0
 12
-159.4500000000002
 22
126.509583661579
 32
0.0
 13
-159.4500000000002
 23
126.509583661579
 33
0.0
  0
MTEXT
  5
46D
330
467
100
AcDbEntity
  8
1
 62
     4
100
AcDbMText
 10
-213.8875000000003
 20
128.509583661579
 30
0.0
 40
3.0
 41
0.0
 71
     7
 72
     1
  1
93 max.
  7
CONVERTER_13
 11
0.9999999999970619
 21
2.424068405545306E-6
 31
0.0
 73
     1
 44
0.60024009603842
  0
ENDBLK
  5
46F
330
467
100
AcDbEntity
  8
0
100
AcDbBlockEnd
  0
BLOCK
  5
479
330
472
100
AcDbEntity
  8
0
100
AcDbBlockBegin
  2
*D6
 70
     1
 10
0.0
 20
0.0
 30
0.0
  3
*D6
  1

  0
LINE
  5
473
330
472
100
AcDbEntity
  8
1
  6
Continuous
 62
     2
100
AcDbLine
 10
-145.3500000000001
 20
126.509583661579
 30
0.0
 11
-53.04999999999998
 21
126.509583661579
 31
0.0
  0
LINE
  5
474
330
472
100
AcDbEntity
  8
1
  6
Continuous
 62
     2
100
AcDbLine
 10
-145.3500000000001
 20
110.2270591021412
 30
0.0
 11
-145.3500000000001
 21
127.509583661579
 31
0.0
  0
LINE
  5
475
330
472
100
AcDbEntity
  8
1
  6
Continuous
 62
     2
100
AcDbLine
 10
-53.04999999999998
 20
105.7270591021412
 30
0.0
 11
-53.04999999999998
 21
127.509583661579
 31
0.0
  0
SOLID
  5
476
330
472
100
AcDbEntity
  8
1
 62
     2
100
AcDbTrace
 10
-142.3500000000001
 20
126.9045411543412
 30
0.0
 11
-142.3500000000001
 21
126.1146261688168
 31
0.0
 12
-145.3500000000001
 22
126.509583661579
 32
0.0
 13
-145.3500000000001
 23
126.509583661579
 33
0.0
  0
SOLID
  5
477
330
472
100
AcDbEntity
  8
1
 62
     2
100
AcDbTrace
 10
-56.04999999999998
 20
126.1146261688168
 30
0.0
 11
-56.04999999999998
 21
126.9045411543412
 31
0.0
 12
-53.04999999999998
 22
126.509583661579
 32
0.0
 13
-53.04999999999998
 23
126.509583661579
 33
0.0
  0
MTEXT
  5
478
330
472
100
AcDbEntity
  8
1
 62
     4
100
AcDbMText
 10
-107.4875
 20
128.509583661579
 30
0.0
 40
3.0
 41
0.0
 71
     7
 72
     1
  1
93 max.
  7
CONVERTER_13
 11
0.9999999999970619
 21
2.424068405545306E-6
 31
0.0
 73
     1
 44
0.60024009603842
  0
ENDBLK
  5
47A
330
472
100
AcDbEntity
  8
0
100
AcDbBlockEnd
  0
BLOCK
  5
484
330
47D
100
AcDbEntity
  8
0
100
AcDbBlockBegin
  2
*D7
 70
     1
 10
0.0
 20
0.0
 30
0.0
  3
*D7
  1

  0
LINE
  5
47E
330
47D
100
AcDbEntity
  8
1
  6
Continuous
 62
     2
100
AcDbLine
 10
-251.7500000000004
 20
73.4602051798847
 30
0.0
 11
-53.05000000000004
 21
73.4602051798847
 31
0.0
  0
LINE
  5
47F
330
47D
100
AcDbEntity
  8
1
  6
Continuous
 62
     2
100
AcDbLine
 10
-251.7500000000004
 20
98.7270591021412
 30
0.0
 11
-251.7500000000004
 21
72.4602051798847
 31
0.0
  0
LINE
  5
480
330
47D
100
AcDbEntity
  8
1
  6
Continuous
 62
     2
100
AcDbLine
 10
-53.05000000000004
 20
98.7270591021412
 30
0.0
 11
-53.05000000000004
 21
72.4602051798847
 31
0.0
  0
SOLID
  5
481
330
47D
100
AcDbEntity
  8
1
 62
     2
100
AcDbTrace
 10
-248.7500000000004
 20
73.85516267264688
 30
0.0
 11
-248.7500000000004
 21
73.06524768712251
 31
0.0
 12
-251.7500000000004
 22
73.4602051798847
 32
0.0
 13
-251.7500000000004
 23
73.4602051798847
 33
0.0
  0
SOLID
  5
482
330
47D
100
AcDbEntity
  8
1
 62
     2
100
AcDbTrace
 10
-56.05000000000004
 20
73.06524768712251
 30
0.0
 11
-56.05000000000004
 21
73.85516267264688
 31
0.0
 12
-53.05000000000004
 22
73.4602051798847
 32
0.0
 13
-53.05000000000004
 23
73.4602051798847
 33
0.0
  0
MTEXT
  5
483
330
47D
100
AcDbEntity
  8
1
 62
     4
100
AcDbMText
 10
-156.3750000000002
 20
75.4602051798847
 30
0.0
 40
3.0
 41
0.0
 71
     7
 72
     1
  1
L(m)
  7
CONVERTER_13
 11
0.9999999999970619
 21
2.424068405545306E-6
 31
0.0
 73
     1
 44
0.60024009603842
  0
ENDBLK
  5
485
330
47D
100
AcDbEntity
  8
0
100
AcDbBlockEnd
  0
ENDSEC
  0
SECTION
  2
ENTITIES
  0
INSERT
  5
4B
330
1F
100
AcDbEntity
  8
1
100
AcDbBlockReference
  2
_formato_A4
 10
0.0
 20
0.0
 30
0.0
  0
LINE
  5
9A
330
1F
100
AcDbEntity
  8
1
  6
Continuous
 62
     7
100
AcDbLine
 10
-137.0000000000003
 20
30.0
 30
0.0
 11
-137.0000000000003
 21
57.99999999999997
 31
0.0
  0
LINE
  5
9B
330
1F
100
AcDbEntity
  8
1
  6
Continuous
 62
     7
100
AcDbLine
 10
-105.0000000000004
 20
29.99999999999996
 30
0.0
 11
-105.0000000000004
 21
57.99999999999997
 31
0.0
  0
LINE
  5
9C
330
1F
100
AcDbEntity
  8
1
  6
Continuous
 62
     7
100
AcDbLine
 10
-10.0000000000002
 20
30.0
 30
0.0
 11
-9.99999999999997
 21
57.99999999999997
 31
0.0
  0
LINE
  5
9D
330
1F
100
AcDbEntity
  8
1
  6
Continuous
 62
     7
100
AcDbLine
 10
-137.0000000000003
 20
43.99999999999997
 30
0.0
 11
-91.00000000000037
 21
43.99999999999997
 31
0.0
  0
LINE
  5
9E
330
1F
100
AcDbEntity
  8
1
  6
Continuous
 62
     7
100
AcDbLine
 10
-137.0000000000003
 20
50.99999999999997
 30
0.0
 11
-9.99999999999997
 21
50.99999999999997
 31
0.0
  0
LINE
  5
9F
330
1F
100
AcDbEntity
  8
1
  6
Continuous
 62
     7
100
AcDbLine
 10
-137.0000000000003
 20
57.99999999999997
 30
0.0
 11
-9.99999999999997
 21
57.99999999999997
 31
0.0
  0
LINE
  5
A0
330
1F
100
AcDbEntity
  8
1
  6
Continuous
 62
     7
100
AcDbLine
 10
-137.0000000000003
 20
30.0
 30
0.0
 11
-10.0000000000002
 21
30.0
 31
0.0
  0
LINE
  5
A1
330
1F
100
AcDbEntity
  8
1
  6
Continuous
 62
     7
100
AcDbLine
 10
-91.00000000000037
 20
29.99999999999996
 30
0.0
 11
-91.00000000000037
 21
57.99999999999997
 31
0.0
  0
LINE
  5
A2
330
1F
100
AcDbEntity
  8
1
  6
Continuous
 62
     7
100
AcDbLine
 10
-137.0000000000003
 20
37.0
 30
0.0
 11
-91.00000000000037
 21
37.0
 31
0.0
  0
LINE
  5
A3
330
1F
100
AcDbEntity
  8
1
  6
Continuous
 62
     7
100
AcDbLine
 10
-276.2000000000002
 20
49.59999999999997
 30
0.0
 11
-251.8000000000002
 21
49.59999999999997
 31
0.0
  0
LINE
  5
A4
330
1F
100
AcDbEntity
  8
1
  6
Continuous
 62
     7
100
AcDbLine
 10
-276.2000000000002
 20
45.19999999999999
 30
0.0
 11
-251.8000000000002
 21
45.19999999999999
 31
0.0
  0
LINE
  5
A5
330
1F
100
AcDbEntity
  8
1
  6
Continuous
 62
     7
100
AcDbLine
 10
-276.2000000000002
 20
40.79999999999997
 30
0.0
 11
-251.8000000000002
 21
40.79999999999997
 31
0.0
  0
LINE
  5
A6
330
1F
100
AcDbEntity
  8
1
  6
Continuous
 62
     7
100
AcDbLine
 10
-276.2000000000002
 20
36.39999999999998
 30
0.0
 11
-251.8000000000002
 21
36.39999999999998
 31
0.0
  0
LINE
  5
A7
330
1F
100
AcDbEntity
  8
1
  6
Continuous
 62
     7
100
AcDbLine
 10
-276.2000000000002
 20
32.0
 30
0.0
 11
-251.8000000000002
 21
32.0
 31
0.0
  0
LINE
  5
A8
330
1F
100
AcDbEntity
  8
1
  6
Continuous
 62
     7
100
AcDbLine
 10
-276.2000000000002
 20
27.59999999999997
 30
0.0
 11
-251.8000000000002
 21
27.59999999999997
 31
0.0
  0
LINE
  5
A9
330
1F
100
AcDbEntity
  8
1
  6
Continuous
 62
     7
100
AcDbLine
 10
-276.2000000000002
 20
23.19999999999999
 30
0.0
 11
-251.8000000000002
 21
23.19999999999999
 31
0.0
  0
LINE
  5
AA
330
1F
100
AcDbEntity
  8
1
  6
Continuous
 62
     7
100
AcDbLine
 10
-276.2000000000002
 20
18.79999999999996
 30
0.0
 11
-251.8000000000002
 21
18.79999999999996
 31
0.0
  0
LINE
  5
AB
330
1F
100
AcDbEntity
  8
1
  6
Continuous
 62
     7
100
AcDbLine
 10
-276.2000000000002
 20
14.40000000000002
 30
0.0
 11
-251.8000000000002
 21
14.40000000000002
 31
0.0
  0
LINE
  5
AC
330
1F
100
AcDbEntity
  8
1
  6
Continuous
 62
     7
100
AcDbLine
 10
-287.0000000000002
 20
53.99999999999999
 30
0.0
 11
-241.0000000000002
 21
53.99999999999999
 31
0.0
  0
LINE
  5
AD
330
1F
100
AcDbEntity
  8
1
  6
Continuous
 62
     7
100
AcDbLine
 10
-241.0000000000002
 20
53.99999999999999
 30
0.0
 11
-241.0000000000002
 21
10.0
 31
0.0
  0
LINE
  5
AE
330
1F
100
AcDbEntity
  8
1
  6
Continuous
 62
     7
100
AcDbLine
 10
-241.0000000000002
 20
10.0
 30
0.0
 11
-287.0000000000002
 21
10.0
 31
0.0
  0
LINE
  5
AF
330
1F
100
AcDbEntity
  8
1
  6
Continuous
 62
     7
100
AcDbLine
 10
-287.0000000000002
 20
10.0
 30
0.0
 11
-287.0000000000002
 21
53.99999999999999
 31
0.0
  0
LINE
  5
B0
330
1F
100
AcDbEntity
  8
1
  6
Continuous
 62
     7
100
AcDbLine
 10
-178.8500000000002
 20
113.2270591021412
 30
0.0
 11
-178.8500000000002
 21
91.2270591021412
 31
0.0
  0
LINE
  5
B1
330
1F
100
AcDbEntity
  8
1
  6
Continuous
 62
     7
100
AcDbLine
 10
-183.8500000000002
 20
112.8121239363767
 30
0.0
 11
-183.8500000000002
 21
113.2270591021412
 31
0.0
  0
LINE
  5
B2
330
1F
100
AcDbEntity
  8
1
  6
Continuous
 62
     7
100
AcDbLine
 10
-183.8500000000002
 20
91.64199426790572
 30
0.0
 11
-183.8500000000002
 21
91.2270591021412
 31
0.0
  0
LINE
  5
B3
330
1F
100
AcDbEntity
  8
1
  6
Continuous
 62
     7
100
AcDbLine
 10
-178.8500000000002
 20
113.2270591021412
 30
0.0
 11
-183.8500000000002
 21
113.2270591021412
 31
0.0
  0
LINE
  5
B4
330
1F
100
AcDbEntity
  8
1
  6
Continuous
 62
     7
100
AcDbLine
 10
-178.8500000000002
 20
91.2270591021412
 30
0.0
 11
-183.8500000000002
 21
91.2270591021412
 31
0.0
  0
LINE
  5
B5
330
1F
100
AcDbEntity
  8
1
  6
Continuous
 62
     7
100
AcDbLine
 10
-178.8500000000002
 20
102.2270591021412
 30
0.0
 11
-183.8500000000002
 21
102.2270591021412
 31
0.0
  0
LINE
  5
B6
330
1F
100
AcDbEntity
  8
1
  6
Continuous
 62
     7
100
AcDbLine
 10
-166.4500000000002
 20
102.2270591021412
 30
0.0
 11
-176.4500000000002
 21
102.2270591021412
 31
0.0
  0
LINE
  5
B7
330
1F
100
AcDbEntity
  8
1
  6
Continuous
 62
     7
100
AcDbLine
 10
-176.4500000000002
 20
113.2270591021412
 30
0.0
 11
-176.4500000000002
 21
91.2270591021412
 31
0.0
  0
LINE
  5
B8
330
1F
100
AcDbEntity
  8
1
  6
Continuous
 62
     7
100
AcDbLine
 10
-176.4500000000002
 20
110.2270591021412
 30
0.0
 11
-178.8500000000002
 21
110.2270591021412
 31
0.0
  0
LINE
  5
B9
330
1F
100
AcDbEntity
  8
1
  6
Continuous
 62
     7
100
AcDbLine
 10
-176.4500000000002
 20
94.2270591021412
 30
0.0
 11
-178.8500000000002
 21
94.2270591021412
 31
0.0
  0
LINE
  5
BA
330
1F
100
AcDbEntity
  8
1
  6
Continuous
 62
     7
100
AcDbLine
 10
-164.4500000000002
 20
113.2270591021412
 30
0.0
 11
-164.4500000000002
 21
91.22705910214142
 31
0.0
  0
LINE
  5
BB
330
1F
100
AcDbEntity
  8
1
  6
Continuous
 62
     7
100
AcDbLine
 10
-162.9500000000002
 20
91.2270591021412
 30
0.0
 11
-176.4500000000002
 21
91.2270591021412
 31
0.0
  0
LINE
  5
BC
330
1F
100
AcDbEntity
  8
1
  6
Continuous
 62
     7
100
AcDbLine
 10
-162.9500000000002
 20
113.2270591021412
 30
0.0
 11
-176.4500000000002
 21
113.2270591021412
 31
0.0
  0
LINE
  5
BD
330
1F
100
AcDbEntity
  8
1
  6
Continuous
 62
     7
100
AcDbLine
 10
-159.4500000000002
 20
109.7270591021412
 30
0.0
 11
-159.4500000000002
 21
94.7270591021412
 31
0.0
  0
LINE
  5
BE
330
1F
100
AcDbEntity
  8
1
  6
Continuous
 62
     2
100
AcDbLine
 10
-233.8500000000002
 20
146.2770591021412
 30
0.0
 11
-233.6500000000002
 21
146.2770591021412
 31
0.0
  0
LINE
  5
BF
330
1F
100
AcDbEntity
  8
1
  6
Continuous
 62
     7
100
AcDbLine
 10
-227.8500000000003
 20
115.4770591021412
 30
0.0
 11
-238.8500000000005
 21
115.4770591021412
 31
0.0
  0
LINE
  5
C0
330
1F
100
AcDbEntity
  8
1
  6
Continuous
 62
     2
100
AcDbLine
 10
-233.8500000000002
 20
169.7770591021412
 30
0.0
 11
-233.9500000000004
 21
169.7770591021412
 31
0.0
  0
LINE
  5
C1
330
1F
100
AcDbEntity
  8
1
  6
Continuous
 62
     7
100
AcDbLine
 10
-233.8500000000002
 20
161.0270591021412
 30
0.0
 11
-229.3500000000003
 21
161.0270591021412
 31
0.0
  0
LINE
  5
C2
330
1F
100
AcDbEntity
  8
1
  6
Continuous
 62
     7
100
AcDbLine
 10
-233.8500000000002
 20
155.0270591021412
 30
0.0
 11
-229.3500000000003
 21
155.0270591021412
 31
0.0
  0
LINE
  5
C3
330
1F
100
AcDbEntity
  8
1
  6
Continuous
 62
     7
100
AcDbLine
 10
-233.8500000000002
 20
161.0270591021412
 30
0.0
 11
-233.8500000000002
 21
168.1358424117192
 31
0.0
  0
LINE
  5
C4
330
1F
100
AcDbEntity
  8
1
  6
Continuous
 62
     7
100
AcDbLine
 10
-235.3500000000002
 20
159.5270591021412
 30
0.0
 11
-233.8500000000002
 21
161.0270591021412
 31
0.0
  0
LINE
  5
C5
330
1F
100
AcDbEntity
  8
1
  6
Continuous
 62
     7
100
AcDbLine
 10
-233.8500000000002
 20
155.0270591021412
 30
0.0
 11
-235.3500000000002
 21
156.5270591021412
 31
0.0
  0
LINE
  5
C6
330
1F
100
AcDbEntity
  8
1
  6
Continuous
 62
     7
100
AcDbLine
 10
-235.3500000000002
 20
159.5270591021412
 30
0.0
 11
-235.3500000000002
 21
171.2770591021412
 31
0.0
  0
LINE
  5
C7
330
1F
100
AcDbEntity
  8
1
  6
Continuous
 62
     7
100
AcDbLine
 10
-233.3500000000002
 20
156.5270591021412
 30
0.0
 11
-233.3500000000002
 21
159.5270591021412
 31
0.0
  0
LINE
  5
C8
330
1F
100
AcDbEntity
  8
1
  6
Continuous
 62
     7
100
AcDbLine
 10
-235.3500000000002
 20
171.2770591021412
 30
0.0
 11
-238.8500000000002
 21
171.2770591021412
 31
0.0
  0
LINE
  5
C9
330
1F
100
AcDbEntity
  8
1
  6
Continuous
 62
     7
100
AcDbLine
 10
-235.3500000000002
 20
144.7770591021412
 30
0.0
 11
-238.8500000000002
 21
144.7770591021412
 31
0.0
  0
LINE
  5
CA
330
1F
100
AcDbEntity
  8
1
  6
Continuous
 62
     7
100
AcDbLine
 10
-233.8500000000002
 20
146.2770591021412
 30
0.0
 11
-186.3031394638635
 21
146.6919942679057
 31
0.0
  0
LINE
  5
CB
330
1F
100
AcDbEntity
  8
1
  6
Continuous
 62
     7
100
AcDbLine
 10
-233.8500000000002
 20
147.9182757925634
 30
0.0
 11
-233.8500000000002
 21
155.0270591021412
 31
0.0
  0
LINE
  5
CC
330
1F
100
AcDbEntity
  8
1
  6
Continuous
 62
     7
100
AcDbLine
 10
-233.8500000000002
 20
169.7770591021412
 30
0.0
 11
-186.3031394638635
 21
169.3621239363767
 31
0.0
  0
LINE
  5
CD
330
1F
100
AcDbEntity
  8
1
  6
Continuous
 62
     7
100
AcDbLine
 10
-183.8500000000002
 20
168.6121239363767
 30
0.0
 11
-186.3031394638635
 21
169.3621239363767
 31
0.0
  0
LINE
  5
CE
330
1F
100
AcDbEntity
  8
1
  6
Continuous
 62
     7
100
AcDbLine
 10
-183.8500000000002
 20
147.4419942679057
 30
0.0
 11
-186.3031394638635
 21
146.6919942679057
 31
0.0
  0
LINE
  5
CF
330
1F
100
AcDbEntity
  8
1
  6
Continuous
 62
     7
100
AcDbLine
 10
-235.3500000000002
 20
144.7770591021412
 30
0.0
 11
-235.3500000000002
 21
156.5270591021412
 31
0.0
  0
LINE
  5
D0
330
1F
100
AcDbEntity
  8
1
  6
Continuous
 62
     7
100
AcDbLine
 10
-233.8500000000002
 20
169.7770591021412
 30
0.0
 11
-235.3500000000002
 21
171.2770591021412
 31
0.0
  0
LINE
  5
D1
330
1F
100
AcDbEntity
  8
1
  6
Continuous
 62
     7
100
AcDbLine
 10
-235.3500000000002
 20
144.7770591021412
 30
0.0
 11
-233.8500000000002
 21
146.2770591021412
 31
0.0
  0
LINE
  5
D2
330
1F
100
AcDbEntity
  8
1
  6
Continuous
 62
     7
100
AcDbLine
 10
-238.8500000000002
 20
144.7770591021412
 30
0.0
 11
-238.8500000000002
 21
171.2770591021412
 31
0.0
  0
LINE
  5
D3
330
1F
100
AcDbEntity
  8
1
  6
Continuous
 62
     7
100
AcDbLine
 10
-183.8500000000002
 20
147.4419942679057
 30
0.0
 11
-183.8500000000002
 21
168.6121239363767
 31
0.0
  0
LINE
  5
D4
330
1F
100
AcDbEntity
  8
1
  6
Continuous
 62
     7
100
AcDbLine
 10
-233.8500000000002
 20
90.4770591021412
 30
0.0
 11
-226.3500000000003
 21
90.4770591021412
 31
0.0
  0
LINE
  5
D5
330
1F
100
AcDbEntity
  8
1
  6
Continuous
 62
     7
100
AcDbLine
 10
-233.8500000000002
 20
92.1182757925634
 30
0.0
 11
-233.8500000000002
 21
112.3358424117192
 31
0.0
  0
LINE
  5
D6
330
1F
100
AcDbEntity
  8
1
  6
Continuous
 62
     7
100
AcDbLine
 10
-233.8500000000002
 20
113.9770591021412
 30
0.0
 11
-186.3031394638635
 21
113.5621239363767
 31
0.0
  0
LINE
  5
D7
330
1F
100
AcDbEntity
  8
1
  6
Continuous
 62
     7
100
AcDbLine
 10
-183.8500000000002
 20
112.8121239363767
 30
0.0
 11
-186.3031394638635
 21
113.5621239363767
 31
0.0
  0
LINE
  5
D8
330
1F
100
AcDbEntity
  8
1
  6
Continuous
 62
     7
100
AcDbLine
 10
-183.8500000000002
 20
91.64199426790572
 30
0.0
 11
-186.3031394638635
 21
90.89199426790572
 31
0.0
  0
LINE
  5
D9
330
1F
100
AcDbEntity
  8
1
  6
Continuous
 62
     7
100
AcDbLine
 10
-235.3500000000002
 20
88.97705910214142
 30
0.0
 11
-235.3500000000002
 21
115.4770591021412
 31
0.0
  0
LINE
  5
DA
330
1F
100
AcDbEntity
  8
1
  6
Continuous
 62
     7
100
AcDbLine
 10
-227.8500000000003
 20
115.4770591021412
 30
0.0
 11
-226.3500000000003
 21
113.9770591021412
 31
0.0
  0
LINE
  5
DB
330
1F
100
AcDbEntity
  8
1
  6
Continuous
 62
     7
100
AcDbLine
 10
-227.8500000000003
 20
88.97705910214142
 30
0.0
 11
-226.3500000000003
 21
90.4770591021412
 31
0.0
  0
LINE
  5
DC
330
1F
100
AcDbEntity
  8
1
  6
Continuous
 62
     7
100
AcDbLine
 10
-227.8500000000003
 20
88.97705910214142
 30
0.0
 11
-238.8500000000002
 21
88.97705910214142
 31
0.0
  0
LINE
  5
DD
330
1F
100
AcDbEntity
  8
1
  6
Continuous
 62
     7
100
AcDbLine
 10
-227.8500000000003
 20
118.7270591021412
 30
0.0
 11
-227.8500000000003
 21
115.4770591021412
 31
0.0
  0
LINE
  5
DE
330
1F
100
AcDbEntity
  8
1
  6
Continuous
 62
     7
100
AcDbLine
 10
-227.8500000000003
 20
85.72705910214142
 30
0.0
 11
-227.8500000000003
 21
88.97705910214142
 31
0.0
  0
LINE
  5
DF
330
1F
100
AcDbEntity
  8
1
  6
Continuous
 62
     7
100
AcDbLine
 10
-233.3500000000002
 20
115.4770591021412
 30
0.0
 11
-229.1000000000002
 21
119.7270591021412
 31
0.0
  0
LINE
  5
E0
330
1F
100
AcDbEntity
  8
1
  6
Continuous
 62
     7
100
AcDbLine
 10
-233.3500000000002
 20
88.97705910214142
 30
0.0
 11
-229.1000000000003
 21
84.72705910214142
 31
0.0
  0
LINE
  5
E1
330
1F
100
AcDbEntity
  8
1
  6
Continuous
 62
     7
100
AcDbLine
 10
-233.8500000000002
 20
113.9770591021412
 30
0.0
 11
-235.3500000000002
 21
115.4770591021412
 31
0.0
  0
LINE
  5
E2
330
1F
100
AcDbEntity
  8
1
  6
Continuous
 62
     7
100
AcDbLine
 10
-235.3500000000002
 20
88.97705910214142
 30
0.0
 11
-233.8500000000002
 21
90.4770591021412
 31
0.0
  0
LINE
  5
E3
330
1F
100
AcDbEntity
  8
1
  6
Continuous
 62
     7
100
AcDbLine
 10
-238.8500000000002
 20
88.97705910214142
 30
0.0
 11
-238.8500000000005
 21
115.4770591021412
 31
0.0
  0
LINE
  5
E4
330
1F
100
AcDbEntity
  8
1
  6
Continuous
 62
     7
100
AcDbLine
 10
-183.8500000000002
 20
91.64199426790572
 30
0.0
 11
-183.8500000000002
 21
112.8121239363767
 31
0.0
  0
LINE
  5
E5
102
{ACAD_REACTORS
330
488
102
}
330
1F
100
AcDbEntity
  8
1
  6
Continuous
 62
     7
100
AcDbLine
 10
-284.3000000000002
 20
168.0770591021411
 30
0.0
 11
-284.3000000000002
 21
147.9770591021413
 31
0.0
  0
LINE
  5
E6
102
{ACAD_REACTORS
330
488
102
}
330
1F
100
AcDbEntity
  8
1
  6
Continuous
 62
     7
100
AcDbLine
 10
-260.2000000000001
 20
168.0770591021411
 30
0.0
 11
-260.2000000000001
 21
147.9770591021413
 31
0.0
  0
LINE
  5
E7
102
{ACAD_REACTORS
330
488
102
}
330
1F
100
AcDbEntity
  8
1
  6
Continuous
 62
     7
100
AcDbLine
 10
-282.3000000000002
 20
170.0770591021411
 30
0.0
 11
-262.2000000000001
 21
170.0770591021411
 31
0.0
  0
LINE
  5
E8
102
{ACAD_REACTORS
330
488
102
}
330
1F
100
AcDbEntity
  8
1
  6
Continuous
 62
     7
100
AcDbLine
 10
-282.3000000000002
 20
145.9770591021413
 30
0.0
 11
-262.2000000000001
 21
145.9770591021413
 31
0.0
  0
LINE
  5
E9
330
1F
100
AcDbEntity
  8
1
  6
Continuous
 62
     7
100
AcDbLine
 10
-282.0000000000002
 20
171.2770591021412
 30
0.0
 11
-262.5000000000002
 21
171.2770591021412
 31
0.0
  0
LINE
  5
EA
330
1F
100
AcDbEntity
  8
1
  6
Continuous
 62
     7
100
AcDbLine
 10
-282.0000000000002
 20
144.7770591021412
 30
0.0
 11
-262.5000000000002
 21
144.7770591021412
 31
0.0
  0
LINE
  5
EB
330
1F
100
AcDbEntity
  8
1
  6
Continuous
 62
     7
100
AcDbLine
 10
-285.5000000000002
 20
167.7770591021412
 30
0.0
 11
-285.5000000000002
 21
148.2770591021412
 31
0.0
  0
LINE
  5
EC
330
1F
100
AcDbEntity
  8
1
  6
Continuous
 62
     7
100
AcDbLine
 10
-259.0000000000002
 20
148.2770591021412
 30
0.0
 11
-259.0000000000002
 21
167.7770591021412
 31
0.0
  0
LINE
  5
ED
330
1F
100
AcDbEntity
  8
1
  6
Continuous
 62
     7
100
AcDbLine
 10
-289.7500000000002
 20
159.5270591021412
 30
0.0
 11
-289.7500000000002
 21
156.5270591021412
 31
0.0
  0
LINE
  5
EE
330
1F
100
AcDbEntity
  8
1
  6
Continuous
 62
     7
100
AcDbLine
 10
-254.7500000000002
 20
159.5270591021412
 30
0.0
 11
-254.7500000000002
 21
156.5270591021412
 31
0.0
  0
LINE
  5
EF
330
1F
100
AcDbEntity
  8
1
  6
Continuous
 62
     7
100
AcDbLine
 10
-289.7500000000002
 20
159.5270591021412
 30
0.0
 11
-285.5000000000002
 21
159.5270591021412
 31
0.0
  0
LINE
  5
F0
330
1F
100
AcDbEntity
  8
1
  6
Continuous
 62
     7
100
AcDbLine
 10
-289.7500000000002
 20
156.5270591021412
 30
0.0
 11
-285.5000000000002
 21
156.5270591021412
 31
0.0
  0
LINE
  5
F1
330
1F
100
AcDbEntity
  8
1
  6
Continuous
 62
     7
100
AcDbLine
 10
-259.0000000000002
 20
159.5270591021412
 30
0.0
 11
-254.7500000000002
 21
159.5270591021412
 31
0.0
  0
LINE
  5
F2
330
1F
100
AcDbEntity
  8
1
  6
Continuous
 62
     7
100
AcDbLine
 10
-254.7500000000002
 20
156.5270591021412
 30
0.0
 11
-259.0000000000002
 21
156.5270591021412
 31
0.0
  0
LINE
  5
F3
330
1F
100
AcDbEntity
  8
1
  6
Continuous
 62
     7
100
AcDbLine
 10
-226.3500000000003
 20
118.7270591021412
 30
0.0
 11
-226.3500000000003
 21
119.7270591021412
 31
0.0
  0
LINE
  5
F4
330
1F
100
AcDbEntity
  8
1
  6
Continuous
 62
     7
100
AcDbLine
 10
-226.3500000000003
 20
119.7270591021412
 30
0.0
 11
-229.1000000000002
 21
119.7270591021412
 31
0.0
  0
LINE
  5
F5
330
1F
100
AcDbEntity
  8
1
  6
Continuous
 62
     7
100
AcDbLine
 10
-226.3500000000003
 20
118.7270591021412
 30
0.0
 11
-229.1500000000002
 21
118.7270591021412
 31
0.0
  0
LINE
  5
F6
330
1F
100
AcDbEntity
  8
1
  6
Continuous
 62
     7
100
AcDbLine
 10
-229.1000000000003
 20
84.72705910214142
 30
0.0
 11
-226.3500000000003
 21
84.72705910214142
 31
0.0
  0
LINE
  5
F7
330
1F
100
AcDbEntity
  8
1
  6
Continuous
 62
     7
100
AcDbLine
 10
-226.3500000000003
 20
84.72705910214142
 30
0.0
 11
-226.3500000000003
 21
85.72705910214142
 31
0.0
  0
LINE
  5
F8
330
1F
100
AcDbEntity
  8
1
  6
Continuous
 62
     7
100
AcDbLine
 10
-226.3500000000003
 20
85.72705910214142
 30
0.0
 11
-229.1500000000002
 21
85.72705910214142
 31
0.0
  0
LINE
  5
F9
330
1F
100
AcDbEntity
  8
1
  6
Continuous
 62
     7
100
AcDbLine
 10
-235.3500000000002
 20
156.5270591021412
 30
0.0
 11
-227.8527186767298
 21
156.5270591021412
 31
0.0
  0
LINE
  5
FA
330
1F
100
AcDbEntity
  8
1
  6
Continuous
 62
     7
100
AcDbLine
 10
-235.3500000000002
 20
159.5270591021412
 30
0.0
 11
-227.7250000000302
 21
159.5270591021412
 31
0.0
  0
LINE
  5
FB
330
1F
100
AcDbEntity
  8
1
  6
Continuous
 62
     7
100
AcDbLine
 10
-229.1000000000002
 20
156.5270591021412
 30
0.0
 11
-229.1000000000002
 21
159.5270591021412
 31
0.0
  0
LINE
  5
FC
330
1F
100
AcDbEntity
  8
1
  6
Continuous
 62
     7
100
AcDbLine
 10
-226.3500000000003
 20
90.4770591021412
 30
0.0
 11
-186.3031394638635
 21
90.89199426790572
 31
0.0
  0
LINE
  5
FD
330
1F
100
AcDbEntity
  8
1
  6
Continuous
 62
     7
100
AcDbLine
 10
-162.9500000000002
 20
147.0270591021414
 30
0.0
 11
-164.4500000000002
 21
147.0270591021414
 31
0.0
  0
LINE
  5
FE
330
1F
100
AcDbEntity
  8
1
  6
Continuous
 62
     7
100
AcDbLine
 10
-159.4500000000002
 20
165.5270591021414
 30
0.0
 11
-159.4500000000002
 21
150.5270591021414
 31
0.0
  0
LINE
  5
FF
330
1F
100
AcDbEntity
  8
1
  6
Continuous
 62
     7
100
AcDbLine
 10
-164.4500000000002
 20
169.0270591021414
 30
0.0
 11
-162.9500000000002
 21
169.0270591021414
 31
0.0
  0
LINE
  5
100
330
1F
100
AcDbEntity
  8
1
  6
Continuous
 62
     7
100
AcDbLine
 10
-166.4500000000002
 20
170.5270591021414
 30
0.0
 11
-176.4500000000002
 21
170.5270591021414
 31
0.0
  0
LINE
  5
101
330
1F
100
AcDbEntity
  8
1
  6
Continuous
 62
     7
100
AcDbLine
 10
-166.4500000000002
 20
145.5270591021414
 30
0.0
 11
-176.4500000000002
 21
145.5270591021414
 31
0.0
  0
LINE
  5
102
330
1F
100
AcDbEntity
  8
1
  6
Continuous
 62
     7
100
AcDbLine
 10
-164.4500000000002
 20
169.0270591021414
 30
0.0
 11
-164.4500000000002
 21
147.6347542567282
 31
0.0
  0
LINE
  5
103
330
1F
100
AcDbEntity
  8
1
  6
Continuous
 62
     7
100
AcDbLine
 10
-176.4500000000002
 20
150.0270591021414
 30
0.0
 11
-178.8500000000002
 21
150.0270591021414
 31
0.0
  0
LINE
  5
104
330
1F
100
AcDbEntity
  8
1
  6
Continuous
 62
     7
100
AcDbLine
 10
-176.4500000000002
 20
166.0270591021414
 30
0.0
 11
-178.8500000000002
 21
166.0270591021414
 31
0.0
  0
LINE
  5
105
330
1F
100
AcDbEntity
  8
1
  6
Continuous
 62
     7
100
AcDbLine
 10
-176.4500000000002
 20
170.5270591021414
 30
0.0
 11
-176.4500000000002
 21
145.5270591021414
 31
0.0
  0
LINE
  5
106
330
1F
100
AcDbEntity
  8
1
  6
Continuous
 62
     7
100
AcDbLine
 10
-166.4500000000002
 20
151.6762061410554
 30
0.0
 11
-176.4500000000002
 21
151.6762061410554
 31
0.0
  0
LINE
  5
107
330
1F
100
AcDbEntity
  8
1
  6
Continuous
 62
     7
100
AcDbLine
 10
-178.8500000000002
 20
170.5270591021414
 30
0.0
 11
-178.8500000000002
 21
145.5270591021414
 31
0.0
  0
LINE
  5
108
330
1F
100
AcDbEntity
  8
1
  6
Continuous
 62
     7
100
AcDbLine
 10
-178.8500000000002
 20
170.5270591021414
 30
0.0
 11
-183.8500000000003
 21
170.5270591021414
 31
0.0
  0
LINE
  5
109
330
1F
100
AcDbEntity
  8
1
  6
Continuous
 62
     7
100
AcDbLine
 10
-178.8500000000002
 20
145.5270591021414
 30
0.0
 11
-183.8500000000002
 21
145.5270591021414
 31
0.0
  0
LINE
  5
10A
330
1F
100
AcDbEntity
  8
1
  6
Continuous
 62
     7
100
AcDbLine
 10
-183.8500000000002
 20
168.6121239363767
 30
0.0
 11
-183.8500000000003
 21
170.5270591021414
 31
0.0
  0
LINE
  5
10B
330
1F
100
AcDbEntity
  8
1
  6
Continuous
 62
     7
100
AcDbLine
 10
-183.8500000000002
 20
147.4419942679057
 30
0.0
 11
-183.8500000000002
 21
145.5270591021414
 31
0.0
  0
LINE
  5
10C
330
1F
100
AcDbEntity
  8
1
  6
Continuous
 62
     7
100
AcDbLine
 10
-166.4500000000002
 20
164.3779120632273
 30
0.0
 11
-176.4500000000002
 21
164.3779120632273
 31
0.0
  0
LINE
  5
10D
330
1F
100
AcDbEntity
  8
1
  6
Continuous
 62
     7
100
AcDbLine
 10
-164.4500000000002
 20
147.6347542567282
 30
0.0
 11
-164.4500000000002
 21
147.0270591021414
 31
0.0
  0
LINE
  5
10E
330
1F
100
AcDbEntity
  8
1
  6
Continuous
 62
     7
100
AcDbLine
 10
-164.4500000000002
 20
147.0270591021414
 30
0.0
 11
-166.4500000000002
 21
145.5270591021414
 31
0.0
  0
LINE
  5
10F
330
1F
100
AcDbEntity
  8
1
  6
Continuous
 62
     7
100
AcDbLine
 10
-166.4500000000002
 20
170.5270591021414
 30
0.0
 11
-164.4500000000002
 21
169.0270591021414
 31
0.0
  0
LINE
  5
110
330
1F
100
AcDbEntity
  8
1
  6
Continuous
 62
     7
100
AcDbLine
 10
-178.8500000000002
 20
151.6762061410554
 30
0.0
 11
-183.8500000000003
 21
151.6762061410554
 31
0.0
  0
LINE
  5
111
330
1F
100
AcDbEntity
  8
1
  6
Continuous
 62
     7
100
AcDbLine
 10
-178.8500000000002
 20
164.3779120632273
 30
0.0
 11
-183.8500000000002
 21
164.3779120632273
 31
0.0
  0
LINE
  5
112
330
1F
100
AcDbEntity
  8
0
  6
Continuous
 62
     2
100
AcDbLine
 10
-220.30337437167
 20
100.8271801989362
 30
0.0
 11
-217.3966256283308
 21
100.8271801989362
 31
0.0
  0
LINE
  5
113
330
1F
100
AcDbEntity
  8
0
  6
Continuous
 62
     2
100
AcDbLine
 10
-220.0150979647475
 20
99.72733085091829
 30
0.0
 11
-220.4765965042656
 21
100.5272616527499
 31
0.0
  0
LINE
  5
114
330
1F
100
AcDbEntity
  8
0
  6
Continuous
 62
     2
100
AcDbLine
 10
-219.9571223085822
 20
100.4272147980208
 30
0.0
 11
-219.6686536995561
 21
99.92720254237508
 31
0.0
  0
LINE
  5
115
330
1F
100
AcDbEntity
  8
0
  6
Continuous
 62
     2
100
AcDbLine
 10
-219.0499827004582
 20
100.4272147980208
 30
0.0
 11
-219.9571223085822
 21
100.4272147980208
 31
0.0
  0
LINE
  5
116
330
1F
100
AcDbEntity
  8
0
  6
Continuous
 62
     2
100
AcDbLine
 10
-219.0499827004582
 20
99.82726669664669
 30
0.0
 11
-219.0499827004582
 21
100.4272147980208
 31
0.0
  0
LINE
  5
117
330
1F
100
AcDbEntity
  8
0
  6
Continuous
 62
     2
100
AcDbLine
 10
-218.6500172995426
 20
100.4272147980208
 30
0.0
 11
-218.6500172995426
 21
99.82726669664669
 31
0.0
  0
LINE
  5
118
330
1F
100
AcDbEntity
  8
0
  6
Continuous
 62
     2
100
AcDbLine
 10
-217.7428776914184
 20
100.4272147980208
 30
0.0
 11
-218.6500172995426
 21
100.4272147980208
 31
0.0
  0
LINE
  5
119
330
1F
100
AcDbEntity
  8
0
  6
Continuous
 62
     2
100
AcDbLine
 10
-218.0313463004444
 20
99.92720254237508
 30
0.0
 11
-217.7428776914184
 21
100.4272147980208
 31
0.0
  0
LINE
  5
11A
330
1F
100
AcDbEntity
  8
0
  6
Continuous
 62
     2
100
AcDbLine
 10
-217.223403495735
 20
100.5272616527499
 30
0.0
 11
-217.6849020352532
 21
99.72733085091829
 31
0.0
  0
LINE
  5
11B
330
1F
100
AcDbEntity
  8
0
  6
Continuous
 62
     2
100
AcDbLine
 10
-219.8418758321517
 20
104.8268342080936
 30
0.0
 11
-217.8581241678488
 21
104.8268342080934
 31
0.0
  0
LINE
  5
11C
330
1F
100
AcDbEntity
  8
0
  6
Continuous
 62
     2
100
AcDbLine
 10
-217.8581241678488
 20
104.4268688071778
 30
0.0
 11
-219.8418758321517
 21
104.4268688071778
 31
0.0
  0
LINE
  5
11D
330
1F
100
AcDbEntity
  8
0
  6
Continuous
 62
     2
100
AcDbLine
 10
-221.2842189484224
 20
102.5269776483273
 30
0.0
 11
-220.5343158435327
 21
103.826809696803
 31
0.0
  0
LINE
  5
11E
330
1F
100
AcDbEntity
  8
0
  6
Continuous
 62
     2
100
AcDbLine
 10
-220.1878715783413
 20
103.6269380053462
 30
0.0
 11
-220.937774683231
 21
102.3271059568705
 31
0.0
  0
LINE
  5
11F
330
1F
100
AcDbEntity
  8
0
  6
Continuous
 62
     2
100
AcDbLine
 10
-217.3966256283307
 20
103.626938005346
 30
0.0
 11
-220.1878715783413
 21
103.6269380053462
 31
0.0
  0
LINE
  5
120
330
1F
100
AcDbEntity
  8
0
  6
Continuous
 62
     2
100
AcDbLine
 10
-220.1878715783413
 20
104.026903406262
 30
0.0
 11
-217.3966256283308
 21
104.026903406262
 31
0.0
  0
LINE
  5
121
330
1F
100
AcDbEntity
  8
0
  6
Continuous
 62
     2
100
AcDbLine
 10
-216.8319543204684
 20
101.523780149597
 30
0.0
 11
-218.0500691981689
 21
102.2270591021412
 31
0.0
  0
LINE
  5
122
330
1F
100
AcDbEntity
  8
0
  6
Continuous
 62
     2
100
AcDbLine
 10
-220.7648729111881
 20
101.2271455998515
 30
0.0
 11
-216.9114373085198
 21
101.2271455998515
 31
0.0
  0
LINE
  5
123
330
1F
100
AcDbEntity
  8
0
  6
Continuous
 62
     2
100
AcDbLine
 10
-217.8108594065169
 20
101.6271110007673
 30
0.0
 11
-220.7648729111881
 21
101.6271110007673
 31
0.0
  0
LINE
  5
124
330
1F
100
AcDbEntity
  8
0
  6
Continuous
 62
     2
100
AcDbLine
 10
-219.8413631983555
 20
102.8270072035147
 30
0.0
 11
-217.8108594065169
 21
102.8270072035147
 31
0.0
  0
LINE
  5
125
330
1F
100
AcDbEntity
  8
0
  6
Continuous
 62
     2
100
AcDbLine
 10
-216.9114373085198
 20
103.2269726044304
 30
0.0
 11
-219.8413631983555
 21
103.2269726044304
 31
0.0
  0
LINE
  5
126
330
1F
100
AcDbEntity
  8
0
  6
Continuous
 62
     2
100
AcDbLine
 10
-216.8319543204684
 20
102.9303380546854
 30
0.0
 11
-218.0500691981689
 21
102.2270591021412
 31
0.0
  0
LINE
  5
127
330
1F
100
AcDbEntity
  8
0
  6
Continuous
 62
     2
100
AcDbLine
 10
-221.849740506868
 20
102.2270591021414
 30
0.0
 11
-218.9366110662981
 21
107.2764834657954
 31
0.0
  0
LINE
  5
128
330
1F
100
AcDbEntity
  8
0
  6
Continuous
 62
     2
100
AcDbLine
 10
-218.9366110662981
 20
97.17763473848652
 30
0.0
 11
-221.849740506868
 21
102.2270591021414
 31
0.0
  0
LINE
  5
129
330
1F
100
AcDbEntity
  8
0
  6
Continuous
 62
     2
100
AcDbLine
 10
-215.8502594931325
 20
102.2270591021412
 30
0.0
 11
-218.7633889337025
 21
97.17763473848652
 31
0.0
  0
LINE
  5
12A
330
1F
100
AcDbEntity
  8
0
  6
Continuous
 62
     2
100
AcDbLine
 10
-218.7633889337025
 20
107.2764834657954
 30
0.0
 11
-215.8502594931325
 21
102.2270591021412
 31
0.0
  0
LINE
  5
12B
330
1F
100
AcDbEntity
  8
0
  6
Continuous
 62
     2
100
AcDbLine
 10
-218.700012974657
 20
102.3136541515977
 30
0.0
 11
-217.8108594065169
 21
102.8270072035147
 31
0.0
  0
LINE
  5
12C
330
1F
100
AcDbEntity
  8
0
  6
Continuous
 62
     2
100
AcDbLine
 10
-217.8108594065169
 20
101.6271110007673
 30
0.0
 11
-218.700012974657
 21
102.1404640526843
 31
0.0
  0
LINE
  5
12D
330
1F
100
AcDbEntity
  8
0
  6
Continuous
 62
     7
100
AcDbLine
 10
-249.7500000000003
 20
160.1270591021416
 30
0.0
 11
-250.7500000000003
 21
160.1270591021416
 31
0.0
  0
LINE
  5
12E
330
1F
100
AcDbEntity
  8
0
  6
Continuous
 62
     7
100
AcDbLine
 10
-250.7500000000003
 20
160.1270591021416
 30
0.0
 11
-250.9500000000001
 21
160.1270591021416
 31
0.0
  0
LINE
  5
12F
330
1F
100
AcDbEntity
  8
0
  6
Continuous
 62
     7
100
AcDbLine
 10
-250.9500000000001
 20
160.1270591021416
 30
0.0
 11
-250.9500000000001
 21
161.5270591021414
 31
0.0
  0
LINE
  5
130
330
1F
100
AcDbEntity
  8
0
  6
Continuous
 62
     7
100
AcDbLine
 10
-250.7500000000003
 20
164.6270591021416
 30
0.0
 11
-250.7500000000003
 21
161.7270591021415
 31
0.0
  0
LINE
  5
131
330
1F
100
AcDbEntity
  8
0
  6
Continuous
 62
     7
100
AcDbLine
 10
-251.7500000000003
 20
160.1270591021416
 30
0.0
 11
-250.9500000000001
 21
160.1270591021416
 31
0.0
  0
LINE
  5
132
330
1F
100
AcDbEntity
  8
0
  6
Continuous
 62
     7
100
AcDbLine
 10
-250.7500000000003
 20
161.7270591021415
 30
0.0
 11
-250.7500000000003
 21
160.1270591021416
 31
0.0
  0
LINE
  5
133
330
1F
100
AcDbEntity
  8
0
  6
Continuous
 62
     7
100
AcDbLine
 10
-250.7500000000003
 20
161.7270591021415
 30
0.0
 11
-250.9500000000001
 21
161.5270591021414
 31
0.0
  0
LINE
  5
134
330
1F
100
AcDbEntity
  8
0
  6
Continuous
 62
     7
100
AcDbLine
 10
-243.1500000000002
 20
165.3270591021414
 30
0.0
 11
-243.1500000000002
 21
164.5270591021414
 31
0.0
  0
LINE
  5
135
330
1F
100
AcDbEntity
  8
0
  6
Continuous
 62
     7
100
AcDbLine
 10
-243.0500000000003
 20
165.3270591021414
 30
0.0
 11
-238.8500000000002
 21
165.3270591021413
 31
0.0
  0
LINE
  5
136
330
1F
100
AcDbEntity
  8
0
  6
Continuous
 62
     7
100
AcDbLine
 10
-250.0500000000003
 20
165.3270591021414
 30
0.0
 11
-243.1500000000002
 21
165.3270591021414
 31
0.0
  0
LINE
  5
137
330
1F
100
AcDbEntity
  8
0
  6
Continuous
 62
     7
100
AcDbLine
 10
-243.1500000000002
 20
164.5270591021414
 30
0.0
 11
-245.4500000000001
 21
164.5270591021414
 31
0.0
  0
LINE
  5
138
330
1F
100
AcDbEntity
  8
0
  6
Continuous
 62
     7
100
AcDbLine
 10
-251.0500000000003
 20
157.5270591021414
 30
0.0
 11
-245.4500000000001
 21
157.5270591021414
 31
0.0
  0
LINE
  5
139
330
1F
100
AcDbEntity
  8
0
  6
Continuous
 62
     7
100
AcDbLine
 10
-249.7500000000003
 20
160.1270591021416
 30
0.0
 11
-249.7500000000003
 21
159.2270591021415
 31
0.0
  0
LINE
  5
13A
330
1F
100
AcDbEntity
  8
0
  6
Continuous
 62
     7
100
AcDbLine
 10
-251.7500000000003
 20
160.1270591021416
 30
0.0
 11
-251.7500000000003
 21
158.2270591021415
 31
0.0
  0
LINE
  5
13B
330
1F
100
AcDbEntity
  8
0
  6
Continuous
 62
     7
100
AcDbLine
 10
-249.2500000000003
 20
158.7270591021415
 30
0.0
 11
-243.1500000000002
 21
158.7270591021415
 31
0.0
  0
LINE
  5
13C
330
1F
100
AcDbEntity
  8
0
  6
Continuous
 62
     7
100
AcDbLine
 10
-243.0500000000003
 20
158.4270591021415
 30
0.0
 11
-248.3500000000002
 21
158.4270591021415
 31
0.0
  0
LINE
  5
13D
330
1F
100
AcDbEntity
  8
0
  6
Continuous
 62
     7
100
AcDbLine
 10
-248.3500000000002
 20
158.7270591021415
 30
0.0
 11
-248.3500000000002
 21
158.4270591021415
 31
0.0
  0
LINE
  5
13E
330
1F
100
AcDbEntity
  8
0
  6
Continuous
 62
     7
100
AcDbLine
 10
-245.4500000000001
 20
157.5270591021414
 30
0.0
 11
-244.7500000000002
 21
156.8270591021414
 31
0.0
  0
LINE
  5
13F
330
1F
100
AcDbEntity
  8
0
  6
Continuous
 62
     7
100
AcDbLine
 10
-245.4500000000001
 20
164.5270591021414
 30
0.0
 11
-245.4500000000001
 21
159.8270591021414
 31
0.0
  0
LINE
  5
140
330
1F
100
AcDbEntity
  8
0
  6
Continuous
 62
     7
100
AcDbLine
 10
-245.4500000000001
 20
159.8270591021414
 30
0.0
 11
-243.1500000000002
 21
159.8270591021414
 31
0.0
  0
LINE
  5
141
330
1F
100
AcDbEntity
  8
0
  6
Continuous
 62
     7
100
AcDbLine
 10
-244.7500000000002
 20
156.8270591021414
 30
0.0
 11
-244.6500000000002
 21
156.7270591021415
 31
0.0
  0
LINE
  5
142
330
1F
100
AcDbEntity
  8
0
  6
Continuous
 62
     7
100
AcDbLine
 10
-243.0500000000003
 20
158.7270591021415
 30
0.0
 11
-238.8500000000002
 21
158.7270591021415
 31
0.0
  0
LINE
  5
143
330
1F
100
AcDbEntity
  8
0
  6
Continuous
 62
     7
100
AcDbLine
 10
-243.1500000000002
 20
159.8270591021414
 30
0.0
 11
-243.1500000000002
 21
158.7270591021415
 31
0.0
  0
LINE
  5
144
330
1F
100
AcDbEntity
  8
0
  6
Continuous
 62
     7
100
AcDbLine
 10
-244.7500000000002
 20
156.8270591021414
 30
0.0
 11
-243.0500000000003
 21
156.8270591021414
 31
0.0
  0
LINE
  5
145
330
1F
100
AcDbEntity
  8
0
  6
Continuous
 62
     7
100
AcDbLine
 10
-238.8500000000002
 20
156.7270591021415
 30
0.0
 11
-244.6500000000002
 21
156.7270591021415
 31
0.0
  0
LINE
  5
146
330
1F
100
AcDbEntity
  8
0
  6
Continuous
 62
     7
100
AcDbLine
 10
-243.0500000000003
 20
158.4270591021415
 30
0.0
 11
-243.0500000000003
 21
156.8270591021414
 31
0.0
  0
LINE
  5
147
330
1F
100
AcDbEntity
  8
0
  6
Continuous
 62
     7
100
AcDbLine
 10
-243.0500000000003
 20
158.4270591021415
 30
0.0
 11
-240.4680495200156
 21
158.4270591021415
 31
0.0
  0
LINE
  5
148
330
1F
100
AcDbEntity
  8
0
  6
Continuous
 62
     7
100
AcDbLine
 10
-238.8500000000002
 20
158.2299168059944
 30
0.0
 11
-240.4680495200156
 21
158.4270591021415
 31
0.0
  0
LINE
  5
149
330
1F
100
AcDbEntity
  8
0
  6
Continuous
 62
     7
100
AcDbLine
 10
-251.7500000000003
 20
105.2270591021412
 30
0.0
 11
-251.7500000000003
 21
99.2270591021412
 31
0.0
  0
LINE
  5
14A
330
1F
100
AcDbEntity
  8
0
  6
Continuous
 62
     7
100
AcDbLine
 10
-251.7500000000003
 20
99.2270591021412
 30
0.0
 11
-250.9500000000001
 21
99.2270591021412
 31
0.0
  0
LINE
  5
14B
330
1F
100
AcDbEntity
  8
0
  6
Continuous
 62
     7
100
AcDbLine
 10
-250.0500000000003
 20
105.522059102141
 30
0.0
 11
-244.3500000000002
 21
105.522059102141
 31
0.0
  0
LINE
  5
14C
330
1F
100
AcDbEntity
  8
0
  6
Continuous
 62
     7
100
AcDbLine
 10
-244.3500000000002
 20
106.0720591021412
 30
0.0
 11
-250.0500000000003
 21
106.0720591021412
 31
0.0
  0
LINE
  5
14D
330
1F
100
AcDbEntity
  8
0
  6
Continuous
 62
     7
100
AcDbLine
 10
-250.7500000000003
 20
103.4820591021413
 30
0.0
 11
-250.7500000000003
 21
103.0120591021413
 31
0.0
  0
LINE
  5
14E
330
1F
100
AcDbEntity
  8
0
  6
Continuous
 62
     7
100
AcDbLine
 10
-250.9500000000001
 20
106.6770591021412
 30
0.0
 11
-250.7500000000003
 21
106.6770591021412
 31
0.0
  0
LINE
  5
14F
330
1F
100
AcDbEntity
  8
0
  6
Continuous
 62
     7
100
AcDbLine
 10
-250.0500000000003
 20
104.5020591021413
 30
0.0
 11
-244.3500000000002
 21
104.5020591021413
 31
0.0
  0
LINE
  5
150
330
1F
100
AcDbEntity
  8
0
  6
Continuous
 62
     7
100
AcDbLine
 10
-244.3500000000002
 20
105.0520591021412
 30
0.0
 11
-250.0500000000003
 21
105.0520591021412
 31
0.0
  0
LINE
  5
151
330
1F
100
AcDbEntity
  8
0
  6
Continuous
 62
     7
100
AcDbLine
 10
-250.0500000000003
 20
102.4620591021411
 30
0.0
 11
-250.7500000000003
 21
102.4620591021411
 31
0.0
  0
LINE
  5
152
330
1F
100
AcDbEntity
  8
0
  6
Continuous
 62
     7
100
AcDbLine
 10
-250.7500000000003
 20
102.4620591021411
 30
0.0
 11
-250.7500000000003
 21
101.9920591021413
 31
0.0
  0
LINE
  5
153
330
1F
100
AcDbEntity
  8
0
  6
Continuous
 62
     7
100
AcDbLine
 10
-250.7500000000003
 20
103.0120591021413
 30
0.0
 11
-250.7500000000003
 21
102.4620591021411
 31
0.0
  0
LINE
  5
154
330
1F
100
AcDbEntity
  8
0
  6
Continuous
 62
     7
100
AcDbLine
 10
-244.3500000000002
 20
104.0320591021413
 30
0.0
 11
-250.0500000000003
 21
104.0320591021413
 31
0.0
  0
LINE
  5
155
330
1F
100
AcDbEntity
  8
0
  6
Continuous
 62
     7
100
AcDbLine
 10
-250.0500000000003
 20
103.4820591021413
 30
0.0
 11
-244.3500000000002
 21
103.4820591021413
 31
0.0
  0
LINE
  5
156
330
1F
100
AcDbEntity
  8
0
  6
Continuous
 62
     7
100
AcDbLine
 10
-244.3500000000002
 20
103.0120591021413
 30
0.0
 11
-250.0500000000003
 21
103.0120591021413
 31
0.0
  0
LINE
  5
157
330
1F
100
AcDbEntity
  8
0
  6
Continuous
 62
     7
100
AcDbLine
 10
-250.0500000000003
 20
102.4620591021411
 30
0.0
 11
-244.3500000000002
 21
102.4620591021411
 31
0.0
  0
LINE
  5
158
330
1F
100
AcDbEntity
  8
0
  6
Continuous
 62
     7
100
AcDbLine
 10
-250.7500000000003
 20
105.0520591021412
 30
0.0
 11
-250.7500000000003
 21
104.5020591021413
 31
0.0
  0
LINE
  5
159
330
1F
100
AcDbEntity
  8
0
  6
Continuous
 62
     7
100
AcDbLine
 10
-250.7500000000003
 20
104.0320591021413
 30
0.0
 11
-250.7500000000003
 21
103.4820591021413
 31
0.0
  0
LINE
  5
15A
330
1F
100
AcDbEntity
  8
0
  6
Continuous
 62
     7
100
AcDbLine
 10
-250.7500000000003
 20
104.5020591021413
 30
0.0
 11
-250.7500000000003
 21
104.0320591021413
 31
0.0
  0
LINE
  5
15B
330
1F
100
AcDbEntity
  8
0
  6
Continuous
 62
     7
100
AcDbLine
 10
-250.0500000000003
 20
104.5020591021413
 30
0.0
 11
-250.7500000000003
 21
104.5020591021413
 31
0.0
  0
LINE
  5
15C
330
1F
100
AcDbEntity
  8
0
  6
Continuous
 62
     7
100
AcDbLine
 10
-250.0500000000003
 20
104.0320591021413
 30
0.0
 11
-250.7500000000003
 21
104.0320591021413
 31
0.0
  0
LINE
  5
15D
330
1F
100
AcDbEntity
  8
0
  6
Continuous
 62
     7
100
AcDbLine
 10
-250.0500000000003
 20
105.0520591021412
 30
0.0
 11
-250.7500000000003
 21
105.0520591021412
 31
0.0
  0
LINE
  5
15E
330
1F
100
AcDbEntity
  8
0
  6
Continuous
 62
     7
100
AcDbLine
 10
-250.7500000000003
 20
105.522059102141
 30
0.0
 11
-250.7500000000003
 21
105.0520591021412
 31
0.0
  0
LINE
  5
15F
330
1F
100
AcDbEntity
  8
0
  6
Continuous
 62
     7
100
AcDbLine
 10
-250.0500000000003
 20
103.0120591021413
 30
0.0
 11
-250.7500000000003
 21
103.0120591021413
 31
0.0
  0
LINE
  5
160
330
1F
100
AcDbEntity
  8
0
  6
Continuous
 62
     7
100
AcDbLine
 10
-250.0500000000003
 20
103.4820591021413
 30
0.0
 11
-250.7500000000003
 21
103.4820591021413
 31
0.0
  0
LINE
  5
161
330
1F
100
AcDbEntity
  8
0
  6
Continuous
 62
     7
100
AcDbLine
 10
-250.0500000000003
 20
105.522059102141
 30
0.0
 11
-250.7500000000003
 21
105.522059102141
 31
0.0
  0
LINE
  5
162
330
1F
100
AcDbEntity
  8
0
  6
Continuous
 62
     7
100
AcDbLine
 10
-250.7500000000003
 20
106.0720591021412
 30
0.0
 11
-250.7500000000003
 21
105.522059102141
 31
0.0
  0
LINE
  5
163
330
1F
100
AcDbEntity
  8
0
  6
Continuous
 62
     7
100
AcDbLine
 10
-250.9500000000001
 20
105.2270591021412
 30
0.0
 11
-251.7500000000003
 21
105.2270591021412
 31
0.0
  0
LINE
  5
164
330
1F
100
AcDbEntity
  8
0
  6
Continuous
 62
     7
100
AcDbLine
 10
-250.0500000000003
 20
106.0720591021412
 30
0.0
 11
-250.7500000000003
 21
106.0720591021412
 31
0.0
  0
LINE
  5
165
330
1F
100
AcDbEntity
  8
0
  6
Continuous
 62
     7
100
AcDbLine
 10
-244.3500000000002
 20
104.0320591021413
 30
0.0
 11
-244.3500000000002
 21
103.4820591021413
 31
0.0
  0
LINE
  5
166
330
1F
100
AcDbEntity
  8
0
  6
Continuous
 62
     7
100
AcDbLine
 10
-244.3500000000002
 20
105.0520591021412
 30
0.0
 11
-244.3500000000002
 21
104.5020591021413
 31
0.0
  0
LINE
  5
167
330
1F
100
AcDbEntity
  8
0
  6
Continuous
 62
     7
100
AcDbLine
 10
-244.3500000000002
 20
106.0720591021412
 30
0.0
 11
-244.3500000000002
 21
105.522059102141
 31
0.0
  0
LINE
  5
168
330
1F
100
AcDbEntity
  8
0
  6
Continuous
 62
     7
100
AcDbLine
 10
-244.3500000000002
 20
103.0120591021413
 30
0.0
 11
-244.3500000000002
 21
102.4620591021411
 31
0.0
  0
LINE
  5
169
330
1F
100
AcDbEntity
  8
0
  6
Continuous
 62
     7
100
AcDbLine
 10
-243.1500000000002
 20
107.9770591021412
 30
0.0
 11
-243.1500000000002
 21
96.4770591021412
 31
0.0
  0
LINE
  5
16A
330
1F
100
AcDbEntity
  8
0
  6
Continuous
 62
     7
100
AcDbLine
 10
-243.0500000000003
 20
108.0770591021413
 30
0.0
 11
-238.8500000000002
 21
108.0770591021413
 31
0.0
  0
LINE
  5
16B
330
1F
100
AcDbEntity
  8
0
  6
Continuous
 62
     7
100
AcDbLine
 10
-243.0500000000003
 20
108.0770591021413
 30
0.0
 11
-243.1500000000002
 21
108.0770591021413
 31
0.0
  0
LINE
  5
16C
330
1F
100
AcDbEntity
  8
0
  6
Continuous
 62
     7
100
AcDbLine
 10
-250.0500000000003
 20
96.37705910214129
 30
0.0
 11
-250.7500000000003
 21
96.37705910214129
 31
0.0
  0
LINE
  5
16D
330
1F
100
AcDbEntity
  8
0
  6
Continuous
 62
     7
100
AcDbLine
 10
-243.1500000000002
 20
96.37705910214129
 30
0.0
 11
-243.0500000000003
 21
96.37705910214129
 31
0.0
  0
LINE
  5
16E
330
1F
100
AcDbEntity
  8
0
  6
Continuous
 62
     7
100
AcDbLine
 10
-243.1500000000002
 20
96.4770591021412
 30
0.0
 11
-243.1500000000002
 21
96.37705910214129
 31
0.0
  0
LINE
  5
16F
330
1F
100
AcDbEntity
  8
0
  6
Continuous
 62
     7
100
AcDbLine
 10
-243.0500000000003
 20
96.37705910214129
 30
0.0
 11
-238.8500000000002
 21
96.37705910214129
 31
0.0
  0
LINE
  5
170
330
1F
100
AcDbEntity
  8
0
  6
Continuous
 62
     7
100
AcDbLine
 10
-250.0500000000003
 20
96.37705910214129
 30
0.0
 11
-243.1500000000002
 21
96.37705910214129
 31
0.0
  0
LINE
  5
171
330
1F
100
AcDbEntity
  8
0
  6
Continuous
 62
     7
100
AcDbLine
 10
-250.9500000000001
 20
97.77705910214115
 30
0.0
 11
-250.9500000000001
 21
106.6770591021412
 31
0.0
  0
LINE
  5
172
330
1F
100
AcDbEntity
  8
0
  6
Continuous
 62
     7
100
AcDbLine
 10
-250.7500000000003
 20
97.77705910214115
 30
0.0
 11
-250.9500000000001
 21
97.77705910214115
 31
0.0
  0
LINE
  5
173
330
1F
100
AcDbEntity
  8
0
  6
Continuous
 62
     7
100
AcDbLine
 10
-250.7500000000003
 20
99.40205910214115
 30
0.0
 11
-250.7500000000003
 21
98.93205910214135
 31
0.0
  0
LINE
  5
174
330
1F
100
AcDbEntity
  8
0
  6
Continuous
 62
     7
100
AcDbLine
 10
-250.0500000000003
 20
99.40205910214115
 30
0.0
 11
-250.7500000000003
 21
99.40205910214115
 31
0.0
  0
LINE
  5
175
330
1F
100
AcDbEntity
  8
0
  6
Continuous
 62
     7
100
AcDbLine
 10
-250.0500000000003
 20
99.40205910214115
 30
0.0
 11
-244.3500000000002
 21
99.40205910214115
 31
0.0
  0
LINE
  5
176
330
1F
100
AcDbEntity
  8
0
  6
Continuous
 62
     7
100
AcDbLine
 10
-250.7500000000003
 20
100.4220591021411
 30
0.0
 11
-250.7500000000003
 21
99.95205910214133
 31
0.0
  0
LINE
  5
177
330
1F
100
AcDbEntity
  8
0
  6
Continuous
 62
     7
100
AcDbLine
 10
-250.0500000000003
 20
99.95205910214133
 30
0.0
 11
-250.7500000000003
 21
99.95205910214133
 31
0.0
  0
LINE
  5
178
330
1F
100
AcDbEntity
  8
0
  6
Continuous
 62
     7
100
AcDbLine
 10
-250.7500000000003
 20
99.95205910214133
 30
0.0
 11
-250.7500000000003
 21
99.40205910214115
 31
0.0
  0
LINE
  5
179
330
1F
100
AcDbEntity
  8
0
  6
Continuous
 62
     7
100
AcDbLine
 10
-244.3500000000002
 20
100.9720591021413
 30
0.0
 11
-250.0500000000003
 21
100.9720591021413
 31
0.0
  0
LINE
  5
17A
330
1F
100
AcDbEntity
  8
0
  6
Continuous
 62
     7
100
AcDbLine
 10
-250.0500000000003
 20
100.9720591021413
 30
0.0
 11
-250.7500000000003
 21
100.9720591021413
 31
0.0
  0
LINE
  5
17B
330
1F
100
AcDbEntity
  8
0
  6
Continuous
 62
     7
100
AcDbLine
 10
-250.7500000000003
 20
98.38205910214117
 30
0.0
 11
-250.7500000000003
 21
96.37705910214129
 31
0.0
  0
LINE
  5
17C
330
1F
100
AcDbEntity
  8
0
  6
Continuous
 62
     7
100
AcDbLine
 10
-250.7500000000003
 20
98.93205910214135
 30
0.0
 11
-250.7500000000003
 21
98.38205910214117
 31
0.0
  0
LINE
  5
17D
330
1F
100
AcDbEntity
  8
0
  6
Continuous
 62
     7
100
AcDbLine
 10
-250.0500000000003
 20
98.38205910214117
 30
0.0
 11
-250.7500000000003
 21
98.38205910214117
 31
0.0
  0
LINE
  5
17E
330
1F
100
AcDbEntity
  8
0
  6
Continuous
 62
     7
100
AcDbLine
 10
-250.0500000000003
 20
98.93205910214135
 30
0.0
 11
-250.7500000000003
 21
98.93205910214135
 31
0.0
  0
LINE
  5
17F
330
1F
100
AcDbEntity
  8
0
  6
Continuous
 62
     7
100
AcDbLine
 10
-250.7500000000003
 20
101.4420591021411
 30
0.0
 11
-250.7500000000003
 21
100.9720591021413
 31
0.0
  0
LINE
  5
180
330
1F
100
AcDbEntity
  8
0
  6
Continuous
 62
     7
100
AcDbLine
 10
-250.7500000000003
 20
100.9720591021413
 30
0.0
 11
-250.7500000000003
 21
100.4220591021411
 31
0.0
  0
LINE
  5
181
330
1F
100
AcDbEntity
  8
0
  6
Continuous
 62
     7
100
AcDbLine
 10
-250.7500000000003
 20
101.9920591021413
 30
0.0
 11
-250.7500000000003
 21
101.4420591021411
 31
0.0
  0
LINE
  5
182
330
1F
100
AcDbEntity
  8
0
  6
Continuous
 62
     7
100
AcDbLine
 10
-244.3500000000002
 20
101.9920591021413
 30
0.0
 11
-250.0500000000003
 21
101.9920591021413
 31
0.0
  0
LINE
  5
183
330
1F
100
AcDbEntity
  8
0
  6
Continuous
 62
     7
100
AcDbLine
 10
-250.0500000000003
 20
101.9920591021413
 30
0.0
 11
-250.7500000000003
 21
101.9920591021413
 31
0.0
  0
LINE
  5
184
330
1F
100
AcDbEntity
  8
0
  6
Continuous
 62
     7
100
AcDbLine
 10
-250.0500000000003
 20
100.4220591021411
 30
0.0
 11
-244.3500000000002
 21
100.4220591021411
 31
0.0
  0
LINE
  5
185
330
1F
100
AcDbEntity
  8
0
  6
Continuous
 62
     7
100
AcDbLine
 10
-250.0500000000003
 20
100.4220591021411
 30
0.0
 11
-250.7500000000003
 21
100.4220591021411
 31
0.0
  0
LINE
  5
186
330
1F
100
AcDbEntity
  8
0
  6
Continuous
 62
     7
100
AcDbLine
 10
-244.3500000000002
 20
99.95205910214133
 30
0.0
 11
-250.0500000000003
 21
99.95205910214133
 31
0.0
  0
LINE
  5
187
330
1F
100
AcDbEntity
  8
0
  6
Continuous
 62
     7
100
AcDbLine
 10
-250.0500000000003
 20
101.4420591021411
 30
0.0
 11
-244.3500000000002
 21
101.4420591021411
 31
0.0
  0
LINE
  5
188
330
1F
100
AcDbEntity
  8
0
  6
Continuous
 62
     7
100
AcDbLine
 10
-250.0500000000003
 20
101.4420591021411
 30
0.0
 11
-250.7500000000003
 21
101.4420591021411
 31
0.0
  0
LINE
  5
189
330
1F
100
AcDbEntity
  8
0
  6
Continuous
 62
     7
100
AcDbLine
 10
-244.3500000000002
 20
98.93205910214135
 30
0.0
 11
-250.0500000000003
 21
98.93205910214135
 31
0.0
  0
LINE
  5
18A
330
1F
100
AcDbEntity
  8
0
  6
Continuous
 62
     7
100
AcDbLine
 10
-250.0500000000003
 20
98.38205910214117
 30
0.0
 11
-244.3500000000002
 21
98.38205910214117
 31
0.0
  0
LINE
  5
18B
330
1F
100
AcDbEntity
  8
0
  6
Continuous
 62
     7
100
AcDbLine
 10
-244.3500000000002
 20
99.95205910214133
 30
0.0
 11
-244.3500000000002
 21
99.40205910214115
 31
0.0
  0
LINE
  5
18C
330
1F
100
AcDbEntity
  8
0
  6
Continuous
 62
     7
100
AcDbLine
 10
-244.3500000000002
 20
98.93205910214135
 30
0.0
 11
-244.3500000000002
 21
98.38205910214117
 31
0.0
  0
LINE
  5
18D
330
1F
100
AcDbEntity
  8
0
  6
Continuous
 62
     7
100
AcDbLine
 10
-244.3500000000002
 20
100.9720591021413
 30
0.0
 11
-244.3500000000002
 21
100.4220591021411
 31
0.0
  0
LINE
  5
18E
330
1F
100
AcDbEntity
  8
0
  6
Continuous
 62
     7
100
AcDbLine
 10
-244.3500000000002
 20
101.9920591021413
 30
0.0
 11
-244.3500000000002
 21
101.4420591021411
 31
0.0
  0
LINE
  5
18F
330
1F
100
AcDbEntity
  8
0
  6
Continuous
 62
     7
100
AcDbLine
 10
-250.7500000000003
 20
108.0770591021413
 30
0.0
 11
-250.7500000000003
 21
106.0720591021412
 31
0.0
  0
LINE
  5
190
330
1F
100
AcDbEntity
  8
0
  6
Continuous
 62
     7
100
AcDbLine
 10
-250.0500000000003
 20
108.0770591021413
 30
0.0
 11
-250.7500000000003
 21
108.0770591021413
 31
0.0
  0
LINE
  5
191
330
1F
100
AcDbEntity
  8
0
  6
Continuous
 62
     7
100
AcDbLine
 10
-250.0500000000003
 20
108.0770591021413
 30
0.0
 11
-243.1500000000002
 21
108.0770591021413
 31
0.0
  0
LINE
  5
192
330
1F
100
AcDbEntity
  8
0
  6
Continuous
 62
     7
100
AcDbLine
 10
-243.1500000000002
 20
108.0770591021413
 30
0.0
 11
-243.1500000000002
 21
107.9770591021412
 31
0.0
  0
LINE
  5
193
330
1F
100
AcDbEntity
  8
0
  6
Continuous
 62
     7
100
AcDbLine
 10
-267.2500000000002
 20
158.7270591021413
 30
0.0
 11
-267.2500000000002
 21
162.1270591021415
 31
0.0
  0
LINE
  5
194
330
1F
100
AcDbEntity
  8
0
  6
Continuous
 62
     7
100
AcDbLine
 10
-266.4000000000002
 20
158.7270591021413
 30
0.0
 11
-266.4000000000002
 21
165.3270591021411
 31
0.0
  0
LINE
  5
195
330
1F
100
AcDbEntity
  8
0
  6
Continuous
 62
     7
100
AcDbLine
 10
-277.2500000000002
 20
162.1270591021415
 30
0.0
 11
-277.2500000000002
 21
158.7270591021413
 31
0.0
  0
LINE
  5
196
330
1F
100
AcDbEntity
  8
0
  6
Continuous
 62
     7
100
AcDbLine
 10
-275.2500000000002
 20
157.5270591021412
 30
0.0
 11
-269.2500000000002
 21
157.5270591021412
 31
0.0
  0
LINE
  5
197
330
1F
100
AcDbEntity
  8
0
  6
Continuous
 62
     7
100
AcDbLine
 10
-269.9750000000002
 20
165.3270591021411
 30
0.0
 11
-269.9750000000002
 21
163.3270591021412
 31
0.0
  0
LINE
  5
198
330
1F
100
AcDbEntity
  8
0
  6
Continuous
 62
     7
100
AcDbLine
 10
-268.4050000000002
 20
165.3270591021411
 30
0.0
 11
-268.4050000000002
 21
163.3270591021411
 31
0.0
  0
LINE
  5
199
330
1F
100
AcDbEntity
  8
0
  6
Continuous
 62
     7
100
AcDbLine
 10
-272.0150000000002
 20
165.3270591021411
 30
0.0
 11
-272.0150000000002
 21
163.3270591021412
 31
0.0
  0
LINE
  5
19A
330
1F
100
AcDbEntity
  8
0
  6
Continuous
 62
     7
100
AcDbLine
 10
-272.4850000000002
 20
165.3270591021411
 30
0.0
 11
-272.4850000000002
 21
163.3270591021412
 31
0.0
  0
LINE
  5
19B
330
1F
100
AcDbEntity
  8
0
  6
Continuous
 62
     7
100
AcDbLine
 10
-270.4450000000002
 20
165.3270591021411
 30
0.0
 11
-270.4450000000002
 21
163.3270591021412
 31
0.0
  0
LINE
  5
19C
330
1F
100
AcDbEntity
  8
0
  6
Continuous
 62
     7
100
AcDbLine
 10
-273.0350000000002
 20
165.3270591021411
 30
0.0
 11
-273.0350000000002
 21
163.3270591021412
 31
0.0
  0
LINE
  5
19D
330
1F
100
AcDbEntity
  8
0
  6
Continuous
 62
     7
100
AcDbLine
 10
-270.9950000000002
 20
165.3270591021411
 30
0.0
 11
-270.9950000000002
 21
163.3270591021412
 31
0.0
  0
LINE
  5
19E
330
1F
100
AcDbEntity
  8
0
  6
Continuous
 62
     7
100
AcDbLine
 10
-271.4650000000002
 20
165.327059102141
 30
0.0
 11
-271.4650000000002
 21
163.3270591021412
 31
0.0
  0
LINE
  5
19F
330
1F
100
AcDbEntity
  8
0
  6
Continuous
 62
     7
100
AcDbLine
 10
-268.9550000000002
 20
165.327059102141
 30
0.0
 11
-268.9550000000002
 21
163.3270591021411
 31
0.0
  0
LINE
  5
1A0
330
1F
100
AcDbEntity
  8
0
  6
Continuous
 62
     7
100
AcDbLine
 10
-269.4250000000002
 20
165.3270591021411
 30
0.0
 11
-269.4250000000002
 21
163.3270591021411
 31
0.0
  0
LINE
  5
1A1
330
1F
100
AcDbEntity
  8
0
  6
Continuous
 62
     7
100
AcDbLine
 10
-276.0950000000002
 20
165.327059102141
 30
0.0
 11
-276.0950000000002
 21
163.3270591021412
 31
0.0
  0
LINE
  5
1A2
330
1F
100
AcDbEntity
  8
0
  6
Continuous
 62
     7
100
AcDbLine
 10
-273.5050000000002
 20
165.3270591021411
 30
0.0
 11
-273.5050000000002
 21
163.3270591021412
 31
0.0
  0
LINE
  5
1A3
330
1F
100
AcDbEntity
  8
0
  6
Continuous
 62
     7
100
AcDbLine
 10
-275.5450000000002
 20
165.3270591021411
 30
0.0
 11
-275.5450000000002
 21
163.3270591021411
 31
0.0
  0
LINE
  5
1A4
330
1F
100
AcDbEntity
  8
0
  6
Continuous
 62
     7
100
AcDbLine
 10
-275.0750000000001
 20
165.3270591021411
 30
0.0
 11
-275.0750000000001
 21
163.3270591021412
 31
0.0
  0
LINE
  5
1A5
330
1F
100
AcDbEntity
  8
0
  6
Continuous
 62
     7
100
AcDbLine
 10
-274.0550000000002
 20
165.327059102141
 30
0.0
 11
-274.0550000000002
 21
163.3270591021412
 31
0.0
  0
LINE
  5
1A6
330
1F
100
AcDbEntity
  8
0
  6
Continuous
 62
     7
100
AcDbLine
 10
-274.5250000000002
 20
165.327059102141
 30
0.0
 11
-274.5250000000002
 21
163.3270591021412
 31
0.0
  0
LINE
  5
1A7
330
1F
100
AcDbEntity
  8
0
  6
Continuous
 62
     7
100
AcDbLine
 10
-266.4000000000002
 20
165.3270591021411
 30
0.0
 11
-278.1000000000002
 21
165.327059102141
 31
0.0
  0
LINE
  5
1A8
330
1F
100
AcDbEntity
  8
0
  6
Continuous
 62
     7
100
AcDbLine
 10
-273.8500000000002
 20
156.8270591021411
 30
0.0
 11
-273.8500000000002
 21
156.7270591021413
 31
0.0
  0
LINE
  5
1A9
330
1F
100
AcDbEntity
  8
0
  6
Continuous
 62
     7
100
AcDbLine
 10
-273.8500000000002
 20
156.7270591021413
 30
0.0
 11
-273.8500000000002
 21
156.6770591021414
 31
0.0
  0
LINE
  5
1AA
330
1F
100
AcDbEntity
  8
0
  6
Continuous
 62
     7
100
AcDbLine
 10
-273.8500000000002
 20
156.8270591021411
 30
0.0
 11
-275.2500000000002
 21
156.8270591021411
 31
0.0
  0
LINE
  5
1AB
330
1F
100
AcDbEntity
  8
0
  6
Continuous
 62
     7
100
AcDbLine
 10
-270.6500000000002
 20
156.8270591021411
 30
0.0
 11
-270.6500000000002
 21
156.7270591021413
 31
0.0
  0
LINE
  5
1AC
330
1F
100
AcDbEntity
  8
0
  6
Continuous
 62
     7
100
AcDbLine
 10
-270.6500000000002
 20
156.8270591021411
 30
0.0
 11
-269.2500000000002
 21
156.8270591021411
 31
0.0
  0
LINE
  5
1AD
330
1F
100
AcDbEntity
  8
0
  6
Continuous
 62
     7
100
AcDbLine
 10
-273.8500000000002
 20
156.7270591021413
 30
0.0
 11
-270.6500000000002
 21
156.7270591021413
 31
0.0
  0
LINE
  5
1AE
330
1F
100
AcDbEntity
  8
0
  6
Continuous
 62
     7
100
AcDbLine
 10
-270.6500000000002
 20
156.7270591021413
 30
0.0
 11
-270.6500000000002
 21
156.6770591021414
 31
0.0
  0
LINE
  5
1AF
330
1F
100
AcDbEntity
  8
0
  6
Continuous
 62
     7
100
AcDbLine
 10
-269.2500000000002
 20
160.1270591021415
 30
0.0
 11
-269.2500000000002
 21
156.8270591021411
 31
0.0
  0
LINE
  5
1B0
330
1F
100
AcDbEntity
  8
0
  6
Continuous
 62
     7
100
AcDbLine
 10
-268.9550000000002
 20
163.3270591021411
 30
0.0
 11
-268.4050000000002
 21
163.3270591021411
 31
0.0
  0
LINE
  5
1B1
330
1F
100
AcDbEntity
  8
0
  6
Continuous
 62
     7
100
AcDbLine
 10
-269.9750000000002
 20
163.3270591021412
 30
0.0
 11
-269.4250000000002
 21
163.3270591021411
 31
0.0
  0
LINE
  5
1B2
330
1F
100
AcDbEntity
  8
0
  6
Continuous
 62
     7
100
AcDbLine
 10
-270.9950000000002
 20
163.3270591021412
 30
0.0
 11
-270.4450000000002
 21
163.3270591021412
 31
0.0
  0
LINE
  5
1B3
330
1F
100
AcDbEntity
  8
0
  6
Continuous
 62
     7
100
AcDbLine
 10
-272.0150000000002
 20
163.3270591021412
 30
0.0
 11
-271.4650000000002
 21
163.3270591021412
 31
0.0
  0
LINE
  5
1B4
330
1F
100
AcDbEntity
  8
0
  6
Continuous
 62
     7
100
AcDbLine
 10
-275.2500000000002
 20
160.1270591021415
 30
0.0
 11
-275.2500000000002
 21
156.8270591021411
 31
0.0
  0
LINE
  5
1B5
330
1F
100
AcDbEntity
  8
0
  6
Continuous
 62
     7
100
AcDbLine
 10
-275.2500000000002
 20
160.1270591021415
 30
0.0
 11
-271.2500000000002
 21
160.1270591021415
 31
0.0
  0
LINE
  5
1B6
330
1F
100
AcDbEntity
  8
0
  6
Continuous
 62
     7
100
AcDbLine
 10
-275.2500000000002
 20
158.7270591021413
 30
0.0
 11
-278.1000000000002
 21
158.7270591021413
 31
0.0
  0
LINE
  5
1B7
330
1F
100
AcDbEntity
  8
0
  6
Continuous
 62
     7
100
AcDbLine
 10
-267.8000000000002
 20
158.7270591021413
 30
0.0
 11
-267.8000000000002
 21
162.1270591021415
 31
0.0
  0
LINE
  5
1B8
330
1F
100
AcDbEntity
  8
0
  6
Continuous
 62
     7
100
AcDbLine
 10
-278.1000000000002
 20
165.327059102141
 30
0.0
 11
-278.1000000000002
 21
158.7270591021413
 31
0.0
  0
LINE
  5
1B9
330
1F
100
AcDbEntity
  8
0
  6
Continuous
 62
     7
100
AcDbLine
 10
-266.4000000000002
 20
158.7270591021413
 30
0.0
 11
-269.2500000000002
 21
158.7270591021413
 31
0.0
  0
LINE
  5
1BA
330
1F
100
AcDbEntity
  8
0
  6
Continuous
 62
     7
100
AcDbLine
 10
-276.7000000000002
 20
158.7270591021413
 30
0.0
 11
-276.7000000000002
 21
162.1270591021415
 31
0.0
  0
LINE
  5
1BB
330
1F
100
AcDbEntity
  8
0
  6
Continuous
 62
     7
100
AcDbLine
 10
-276.7000000000002
 20
160.1270591021415
 30
0.0
 11
-275.2500000000002
 21
160.1270591021415
 31
0.0
  0
LINE
  5
1BC
330
1F
100
AcDbEntity
  8
0
  6
Continuous
 62
     7
100
AcDbLine
 10
-269.2500000000002
 20
160.1270591021415
 30
0.0
 11
-267.8000000000002
 21
160.1270591021415
 31
0.0
  0
LINE
  5
1BD
330
1F
100
AcDbEntity
  8
0
  6
Continuous
 62
     7
100
AcDbLine
 10
-276.7000000000002
 20
161.7270591021413
 30
0.0
 11
-273.0500000000002
 21
161.7270591021413
 31
0.0
  0
LINE
  5
1BE
330
1F
100
AcDbEntity
  8
0
  6
Continuous
 62
     7
100
AcDbLine
 10
-274.0550000000002
 20
163.3270591021412
 30
0.0
 11
-273.5050000000002
 21
163.3270591021412
 31
0.0
  0
LINE
  5
1BF
330
1F
100
AcDbEntity
  8
0
  6
Continuous
 62
     7
100
AcDbLine
 10
-267.2500000000002
 20
162.1270591021415
 30
0.0
 11
-267.8000000000002
 21
162.1270591021415
 31
0.0
  0
LINE
  5
1C0
330
1F
100
AcDbEntity
  8
0
  6
Continuous
 62
     7
100
AcDbLine
 10
-276.0950000000002
 20
163.3270591021412
 30
0.0
 11
-275.5450000000002
 21
163.3270591021411
 31
0.0
  0
LINE
  5
1C1
330
1F
100
AcDbEntity
  8
0
  6
Continuous
 62
     7
100
AcDbLine
 10
-273.0350000000002
 20
163.3270591021412
 30
0.0
 11
-272.4850000000002
 21
163.3270591021412
 31
0.0
  0
LINE
  5
1C2
330
1F
100
AcDbEntity
  8
0
  6
Continuous
 62
     7
100
AcDbLine
 10
-276.7000000000002
 20
162.1270591021415
 30
0.0
 11
-277.2500000000002
 21
162.1270591021415
 31
0.0
  0
LINE
  5
1C3
330
1F
100
AcDbEntity
  8
0
  6
Continuous
 62
     7
100
AcDbLine
 10
-275.0750000000001
 20
163.3270591021412
 30
0.0
 11
-274.5250000000002
 21
163.3270591021412
 31
0.0
  0
LINE
  5
1C4
330
1F
100
AcDbEntity
  8
0
  6
Continuous
 62
     7
100
AcDbLine
 10
-265.3500000000002
 20
157.1770591021414
 30
0.0
 11
-267.5000000000002
 21
157.1770591021414
 31
0.0
  0
LINE
  5
1C5
330
1F
100
AcDbEntity
  8
0
  6
Continuous
 62
     7
100
AcDbLine
 10
-265.909182548229
 20
163.2770591021412
 30
0.0
 11
-265.909182548229
 21
160.7770591021412
 31
0.0
  0
LINE
  5
1C6
330
1F
100
AcDbEntity
  8
0
  6
Continuous
 62
     7
100
AcDbLine
 10
-265.909182548229
 20
163.2770591021412
 30
0.0
 11
-266.3500000000002
 21
163.2770591021412
 31
0.0
  0
LINE
  5
1C7
330
1F
100
AcDbEntity
  8
0
  6
Continuous
 62
     7
100
AcDbLine
 10
-265.909182548229
 20
160.7770591021412
 30
0.0
 11
-266.3500000000002
 21
160.7770591021412
 31
0.0
  0
LINE
  5
1C8
330
1F
100
AcDbEntity
  8
0
  6
Continuous
 62
     7
100
AcDbLine
 10
-265.3500000000002
 20
163.7770591021412
 30
0.0
 11
-265.3500000000002
 21
160.2770591021412
 31
0.0
  0
LINE
  5
1C9
330
1F
100
AcDbEntity
  8
0
  6
Continuous
 62
     7
100
AcDbLine
 10
-266.3500000000002
 20
163.7770591021412
 30
0.0
 11
-264.8500000000002
 21
163.7770591021412
 31
0.0
  0
LINE
  5
1CA
330
1F
100
AcDbEntity
  8
0
  6
Continuous
 62
     7
100
AcDbLine
 10
-266.3500000000002
 20
164.6770591021414
 30
0.0
 11
-264.3500000000002
 21
164.6770591021414
 31
0.0
  0
LINE
  5
1CB
330
1F
100
AcDbEntity
  8
0
  6
Continuous
 62
     7
100
AcDbLine
 10
-264.3500000000002
 20
158.1770591021414
 30
0.0
 11
-264.3500000000002
 21
165.8770591021414
 31
0.0
  0
LINE
  5
1CC
330
1F
100
AcDbEntity
  8
0
  6
Continuous
 62
     7
100
AcDbLine
 10
-279.1500000000002
 20
160.2770591021412
 30
0.0
 11
-279.1500000000002
 21
163.7770591021412
 31
0.0
  0
LINE
  5
1CD
330
1F
100
AcDbEntity
  8
0
  6
Continuous
 62
     7
100
AcDbLine
 10
-278.5908174517714
 20
160.7770591021412
 30
0.0
 11
-278.5908174517714
 21
163.2770591021412
 31
0.0
  0
LINE
  5
1CE
330
1F
100
AcDbEntity
  8
0
  6
Continuous
 62
     7
100
AcDbLine
 10
-279.6500000000002
 20
160.2770591021412
 30
0.0
 11
-278.1500000000002
 21
160.2770591021412
 31
0.0
  0
LINE
  5
1CF
330
1F
100
AcDbEntity
  8
0
  6
Continuous
 62
     7
100
AcDbLine
 10
-278.1000000000002
 20
160.2770591021412
 30
0.0
 11
-278.1500000000002
 21
160.2770591021412
 31
0.0
  0
LINE
  5
1D0
330
1F
100
AcDbEntity
  8
0
  6
Continuous
 62
     7
100
AcDbLine
 10
-278.1500000000002
 20
160.7770591021412
 30
0.0
 11
-278.5908174517714
 21
160.7770591021412
 31
0.0
  0
LINE
  5
1D1
330
1F
100
AcDbEntity
  8
0
  6
Continuous
 62
     7
100
AcDbLine
 10
-278.1500000000002
 20
163.2770591021412
 30
0.0
 11
-278.5908174517714
 21
163.2770591021412
 31
0.0
  0
LINE
  5
1D2
330
1F
100
AcDbEntity
  8
0
  6
Continuous
 62
     7
100
AcDbLine
 10
-264.3500000000002
 20
159.3770591021415
 30
0.0
 11
-266.3500000000002
 21
159.3770591021415
 31
0.0
  0
LINE
  5
1D3
330
1F
100
AcDbEntity
  8
0
  6
Continuous
 62
     7
100
AcDbLine
 10
-278.1500000000002
 20
159.3770591021415
 30
0.0
 11
-280.1500000000002
 21
159.3770591021415
 31
0.0
  0
LINE
  5
1D4
330
1F
100
AcDbEntity
  8
0
  6
Continuous
 62
     7
100
AcDbLine
 10
-261.7500000000002
 20
164.1770591021414
 30
0.0
 11
-263.2500000000002
 21
164.1770591021414
 31
0.0
  0
LINE
  5
1D5
330
1F
100
AcDbEntity
  8
0
  6
Continuous
 62
     7
100
AcDbLine
 10
-264.8500000000002
 20
163.7770591021412
 30
0.0
 11
-264.8500000000002
 21
160.2770591021412
 31
0.0
  0
LINE
  5
1D6
330
1F
100
AcDbEntity
  8
0
  6
Continuous
 62
     7
100
AcDbLine
 10
-266.3500000000002
 20
160.2770591021412
 30
0.0
 11
-264.8500000000002
 21
160.2770591021412
 31
0.0
  0
LINE
  5
1D7
330
1F
100
AcDbEntity
  8
0
  6
Continuous
 62
     7
100
AcDbLine
 10
-261.7500000000002
 20
155.5270591021412
 30
0.0
 11
-263.2500000000002
 21
155.5270591021412
 31
0.0
  0
LINE
  5
1D8
330
1F
100
AcDbEntity
  8
0
  6
Continuous
 62
     7
100
AcDbLine
 10
-263.2500000000002
 20
159.0770591021411
 30
0.0
 11
-261.7500000000002
 21
159.0770591021411
 31
0.0
  0
LINE
  5
1D9
330
1F
100
AcDbEntity
  8
0
  6
Continuous
 62
     7
100
AcDbLine
 10
-263.2500000000002
 20
168.1519186482698
 30
0.0
 11
-263.2500000000002
 21
155.5270591021412
 31
0.0
  0
LINE
  5
1DA
102
{ACAD_REACTORS
330
488
102
}
330
1F
100
AcDbEntity
  8
0
  6
Continuous
 62
     7
100
AcDbLine
 10
-261.7500000000002
 20
165.9270591021414
 30
0.0
 11
-261.7500000000002
 21
149.7270591021413
 31
0.0
  0
LINE
  5
1DB
330
1F
100
AcDbEntity
  8
0
  6
Continuous
 62
     7
100
AcDbLine
 10
-278.1500000000002
 20
163.7770591021412
 30
0.0
 11
-279.6500000000002
 21
163.7770591021412
 31
0.0
  0
LINE
  5
1DC
330
1F
100
AcDbEntity
  8
0
  6
Continuous
 62
     7
100
AcDbLine
 10
-266.4000000000002
 20
163.7770591021412
 30
0.0
 11
-266.3500000000002
 21
163.7770591021412
 31
0.0
  0
LINE
  5
1DD
330
1F
100
AcDbEntity
  8
0
  6
Continuous
 62
     7
100
AcDbLine
 10
-278.1000000000002
 20
163.7770591021412
 30
0.0
 11
-278.1500000000002
 21
163.7770591021412
 31
0.0
  0
LINE
  5
1DE
330
1F
100
AcDbEntity
  8
0
  6
Continuous
 62
     7
100
AcDbLine
 10
-265.3500000000002
 20
166.8770591021414
 30
0.0
 11
-279.1500000000002
 21
166.8770591021414
 31
0.0
  0
LINE
  5
1DF
102
{ACAD_REACTORS
330
488
102
}
330
1F
100
AcDbEntity
  8
0
  6
Continuous
 62
     7
100
AcDbLine
 10
-280.3500000000002
 20
168.327059102141
 30
0.0
 11
-264.1500000000002
 21
168.327059102141
 31
0.0
  0
LINE
  5
1E0
330
1F
100
AcDbEntity
  8
0
  6
Continuous
 62
     7
100
AcDbLine
 10
-280.1500000000002
 20
164.6770591021414
 30
0.0
 11
-278.1500000000002
 21
164.6770591021414
 31
0.0
  0
LINE
  5
1E1
330
1F
100
AcDbEntity
  8
0
  6
Continuous
 62
     7
100
AcDbLine
 10
-277.0000000000002
 20
157.1770591021414
 30
0.0
 11
-277.0000000000002
 21
155.9770591021413
 31
0.0
  0
LINE
  5
1E2
330
1F
100
AcDbEntity
  8
0
  6
Continuous
 62
     7
100
AcDbLine
 10
-277.0000000000002
 20
157.1770591021414
 30
0.0
 11
-279.1500000000002
 21
157.1770591021414
 31
0.0
  0
LINE
  5
1E3
330
1F
100
AcDbEntity
  8
0
  6
Continuous
 62
     7
100
AcDbLine
 10
-276.0000000000002
 20
154.9770591021413
 30
0.0
 11
-268.5000000000002
 21
154.9770591021413
 31
0.0
  0
LINE
  5
1E4
102
{ACAD_REACTORS
330
488
102
}
330
1F
100
AcDbEntity
  8
0
  6
Continuous
 62
     7
100
AcDbLine
 10
-264.1500000000002
 20
147.3270591021411
 30
0.0
 11
-280.3500000000002
 21
147.3270591021411
 31
0.0
  0
LINE
  5
1E5
330
1F
100
AcDbEntity
  8
0
  6
Continuous
 62
     7
100
AcDbLine
 10
-268.7500000000002
 20
150.1520591021412
 30
0.0
 11
-268.7500000000002
 21
152.1520591021412
 31
0.0
  0
LINE
  5
1E6
330
1F
100
AcDbEntity
  8
0
  6
Continuous
 62
     7
100
AcDbLine
 10
-274.7500000000002
 20
149.1520591021412
 30
0.0
 11
-269.7500000000002
 21
149.1520591021412
 31
0.0
  0
LINE
  5
1E7
330
1F
100
AcDbEntity
  8
0
  6
Continuous
 62
     7
100
AcDbLine
 10
-275.7500000000002
 20
152.1520591021412
 30
0.0
 11
-275.7500000000002
 21
150.1520591021412
 31
0.0
  0
LINE
  5
1E8
330
1F
100
AcDbEntity
  8
0
  6
Continuous
 62
     7
100
AcDbLine
 10
-269.7500000000002
 20
153.1520591021412
 30
0.0
 11
-274.7500000000002
 21
153.1520591021412
 31
0.0
  0
LINE
  5
1E9
330
1F
100
AcDbEntity
  8
0
  6
Continuous
 62
     7
100
AcDbLine
 10
-267.5000000000002
 20
157.1770591021414
 30
0.0
 11
-267.5000000000002
 21
155.9770591021413
 31
0.0
  0
LINE
  5
1EA
330
1F
100
AcDbEntity
  8
0
  6
Continuous
 62
     7
100
AcDbLine
 10
-266.4000000000002
 20
160.2770591021412
 30
0.0
 11
-266.3500000000002
 21
160.2770591021412
 31
0.0
  0
LINE
  5
1EB
330
1F
100
AcDbEntity
  8
0
  6
Continuous
 62
     7
100
AcDbLine
 10
-280.1500000000002
 20
158.1770591021414
 30
0.0
 11
-280.1500000000002
 21
165.8770591021414
 31
0.0
  0
LINE
  5
1EC
102
{ACAD_REACTORS
330
488
102
}
330
1F
100
AcDbEntity
  8
0
  6
Continuous
 62
     7
100
AcDbLine
 10
-282.7500000000002
 20
165.9270591021414
 30
0.0
 11
-282.7500000000002
 21
149.7270591021413
 31
0.0
  0
LINE
  5
1ED
330
1F
100
AcDbEntity
  8
0
  6
Continuous
 62
     7
100
AcDbLine
 10
-282.7500000000002
 20
159.0770591021411
 30
0.0
 11
-281.2500000000002
 21
159.0770591021411
 31
0.0
  0
LINE
  5
1EE
330
1F
100
AcDbEntity
  8
0
  6
Continuous
 62
     7
100
AcDbLine
 10
-279.6500000000002
 20
160.2770591021412
 30
0.0
 11
-279.6500000000002
 21
163.7770591021412
 31
0.0
  0
LINE
  5
1EF
330
1F
100
AcDbEntity
  8
0
  6
Continuous
 62
     7
100
AcDbLine
 10
-281.2500000000002
 20
168.1519186482698
 30
0.0
 11
-281.2500000000002
 21
155.5270591021412
 31
0.0
  0
LINE
  5
1F0
330
1F
100
AcDbEntity
  8
0
  6
Continuous
 62
     7
100
AcDbLine
 10
-281.2500000000002
 20
164.1770591021414
 30
0.0
 11
-282.7500000000002
 21
164.1770591021411
 31
0.0
  0
LINE
  5
1F1
330
1F
100
AcDbEntity
  8
1
  6
Continuous
 62
     2
100
AcDbLine
 10
-271.5500000000002
 20
150.4253090540912
 30
0.0
 11
-271.5500000000002
 21
151.8788091501916
 31
0.0
  0
LINE
  5
1F2
330
1F
100
AcDbEntity
  8
1
  6
Continuous
 62
     2
100
AcDbLine
 10
-271.0000277546512
 20
150.5694597262555
 30
0.0
 11
-271.4000277546512
 21
150.3386904954861
 31
0.0
  0
LINE
  5
1F3
330
1F
100
AcDbEntity
  8
1
  6
Continuous
 62
     2
100
AcDbLine
 10
-271.3500000000001
 20
150.5984500619358
 30
0.0
 11
-271.0999722453491
 21
150.742696843465
 31
0.0
  0
LINE
  5
1F4
330
1F
100
AcDbEntity
  8
1
  6
Continuous
 62
     2
100
AcDbLine
 10
-271.3500000000001
 20
151.0520591021414
 30
0.0
 11
-271.3500000000001
 21
150.5984500619358
 31
0.0
  0
LINE
  5
1F5
330
1F
100
AcDbEntity
  8
1
  6
Continuous
 62
     2
100
AcDbLine
 10
-271.0500000000002
 20
151.0520591021414
 30
0.0
 11
-271.3500000000001
 21
151.0520591021414
 31
0.0
  0
LINE
  5
1F6
330
1F
100
AcDbEntity
  8
1
  6
Continuous
 62
     2
100
AcDbLine
 10
-271.3500000000003
 20
151.2520591021415
 30
0.0
 11
-271.0500000000002
 21
151.2520591021415
 31
0.0
  0
LINE
  5
1F7
330
1F
100
AcDbEntity
  8
1
  6
Continuous
 62
     2
100
AcDbLine
 10
-271.3500000000001
 20
151.705668142347
 30
0.0
 11
-271.3500000000003
 21
151.2520591021415
 31
0.0
  0
LINE
  5
1F8
330
1F
100
AcDbEntity
  8
1
  6
Continuous
 62
     2
100
AcDbLine
 10
-271.0999722453491
 20
151.5614213608174
 30
0.0
 11
-271.3500000000001
 21
151.705668142347
 31
0.0
  0
LINE
  5
1F9
330
1F
100
AcDbEntity
  8
1
  6
Continuous
 62
     2
100
AcDbLine
 10
-271.4000277546512
 20
151.9654277087963
 30
0.0
 11
-271.0000277546512
 21
151.7346584780273
 31
0.0
  0
LINE
  5
1FA
330
1F
100
AcDbEntity
  8
1
  6
Continuous
 62
     2
100
AcDbLine
 10
-273.5500000000002
 20
150.6560782848603
 30
0.0
 11
-273.5500000000002
 21
151.6480399194222
 31
0.0
  0
LINE
  5
1FB
330
1F
100
AcDbEntity
  8
1
  6
Continuous
 62
     2
100
AcDbLine
 10
-273.3500000000001
 20
151.6480399194222
 30
0.0
 11
-273.3500000000001
 21
150.6560782848603
 31
0.0
  0
LINE
  5
1FC
330
1F
100
AcDbEntity
  8
1
  6
Continuous
 62
     2
100
AcDbLine
 10
-272.3999722453492
 20
149.9348443416399
 30
0.0
 11
-273.0499444906982
 21
150.3098283293413
 31
0.0
  0
LINE
  5
1FD
330
1F
100
AcDbEntity
  8
1
  6
Continuous
 62
     2
100
AcDbLine
 10
-272.9500000000002
 20
150.4830654465511
 30
0.0
 11
-272.3000277546512
 21
150.1080814588497
 31
0.0
  0
LINE
  5
1FE
330
1F
100
AcDbEntity
  8
1
  6
Continuous
 62
     2
100
AcDbLine
 10
-272.9500000000002
 20
151.8788091501916
 30
0.0
 11
-272.9500000000002
 21
150.4830654465511
 31
0.0
  0
LINE
  5
1FF
330
1F
100
AcDbEntity
  8
1
  6
Continuous
 62
     2
100
AcDbLine
 10
-273.1500000000002
 20
150.4830654465511
 30
0.0
 11
-273.1500000000002
 21
151.8788091501916
 31
0.0
  0
LINE
  5
200
330
1F
100
AcDbEntity
  8
1
  6
Continuous
 62
     2
100
AcDbLine
 10
-271.8983301050872
 20
152.1611692276229
 30
0.0
 11
-272.2500000000002
 21
151.5520591021414
 31
0.0
  0
LINE
  5
201
330
1F
100
AcDbEntity
  8
1
  6
Continuous
 62
     2
100
AcDbLine
 10
-271.7500000000002
 20
150.1945398233218
 30
0.0
 11
-271.7500000000002
 21
152.1214242957515
 31
0.0
  0
LINE
  5
202
330
1F
100
AcDbEntity
  8
1
  6
Continuous
 62
     2
100
AcDbLine
 10
-271.9500000000002
 20
151.6716743444121
 30
0.0
 11
-271.9500000000002
 21
150.1945398233218
 31
0.0
  0
LINE
  5
203
330
1F
100
AcDbEntity
  8
1
  6
Continuous
 62
     2
100
AcDbLine
 10
-272.5500000000002
 20
150.6563346239311
 30
0.0
 11
-272.5500000000002
 21
151.6716743444121
 31
0.0
  0
LINE
  5
204
330
1F
100
AcDbEntity
  8
1
  6
Continuous
 62
     2
100
AcDbLine
 10
-272.7500000000002
 20
152.1214242957515
 30
0.0
 11
-272.7500000000002
 21
150.6563346239311
 31
0.0
  0
LINE
  5
205
330
1F
100
AcDbEntity
  8
1
  6
Continuous
 62
     2
100
AcDbLine
 10
-272.6016698949131
 20
152.1611692276229
 30
0.0
 11
-272.2500000000002
 21
151.5520591021414
 31
0.0
  0
LINE
  5
206
330
1F
100
AcDbEntity
  8
1
  6
Continuous
 62
     2
100
AcDbLine
 10
-272.2500000000002
 20
149.6520591021412
 30
0.0
 11
-274.7749305825427
 21
151.108749822839
 31
0.0
  0
LINE
  5
207
330
1F
100
AcDbEntity
  8
1
  6
Continuous
 62
     2
100
AcDbLine
 10
-269.7250694174578
 20
151.108749822839
 30
0.0
 11
-272.2500000000002
 21
149.6520591021412
 31
0.0
  0
LINE
  5
208
330
1F
100
AcDbEntity
  8
1
  6
Continuous
 62
     2
100
AcDbLine
 10
-272.2500000000002
 20
152.6520591021412
 30
0.0
 11
-269.7250694174578
 21
151.1953683814438
 31
0.0
  0
LINE
  5
209
330
1F
100
AcDbEntity
  8
1
  6
Continuous
 62
     2
100
AcDbLine
 10
-274.7749305825427
 20
151.1953683814438
 30
0.0
 11
-272.2500000000002
 21
152.6520591021412
 31
0.0
  0
LINE
  5
20A
330
1F
100
AcDbEntity
  8
1
  6
Continuous
 62
     2
100
AcDbLine
 10
-272.2933012701897
 20
151.2270591021413
 30
0.0
 11
-272.5500000000002
 21
151.6716743444121
 31
0.0
  0
LINE
  5
20B
330
1F
100
AcDbEntity
  8
1
  6
Continuous
 62
     2
100
AcDbLine
 10
-271.9500000000002
 20
151.6716743444121
 30
0.0
 11
-272.2066987298111
 21
151.2270591021413
 31
0.0
  0
LINE
  5
20C
330
1F
100
AcDbEntity
  8
0
  6
Continuous
 62
     7
100
AcDbLine
 10
-281.2500000000002
 20
155.5270591021412
 30
0.0
 11
-282.7500000000002
 21
155.5270591021412
 31
0.0
  0
LINE
  5
20D
330
1F
100
AcDbEntity
  8
0
  6
Continuous
 62
     7
100
AcDbLine
 10
-278.1000000000002
 20
160.1270591021415
 30
0.0
 11
-277.2500000000002
 21
160.1270591021415
 31
0.0
  0
LINE
  5
20E
330
1F
100
AcDbEntity
  8
0
  6
Continuous
 62
     7
100
AcDbLine
 10
-267.2500000000002
 20
160.1270591021415
 30
0.0
 11
-266.4000000000002
 21
160.1270591021415
 31
0.0
  0
LINE
  5
20F
330
1F
100
AcDbEntity
  8
0
  6
Continuous
 62
     7
100
AcDbLine
 10
-271.2500000000002
 20
160.1270591021415
 30
0.0
 11
-269.2500000000002
 21
160.1270591021415
 31
0.0
  0
LINE
  5
210
330
1F
100
AcDbEntity
  8
0
  6
Continuous
 62
     7
100
AcDbLine
 10
-271.4500000000002
 20
161.7270591021413
 30
0.0
 11
-267.8000000000002
 21
161.7270591021413
 31
0.0
  0
LINE
  5
211
330
1F
100
AcDbEntity
  8
0
  6
Continuous
 62
     7
100
AcDbLine
 10
-32.39999999999999
 20
161.7270591021413
 30
0.0
 11
-28.75000000000001
 21
161.7270591021413
 31
0.0
  0
LINE
  5
212
330
1F
100
AcDbEntity
  8
0
  6
Continuous
 62
     7
100
AcDbLine
 10
-32.2
 20
160.1270591021415
 30
0.0
 11
-30.2
 21
160.1270591021415
 31
0.0
  0
LINE
  5
213
330
1F
100
AcDbEntity
  8
0
  6
Continuous
 62
     7
100
AcDbLine
 10
-28.2
 20
160.1270591021415
 30
0.0
 11
-27.34999999999998
 21
160.1270591021415
 31
0.0
  0
LINE
  5
214
330
1F
100
AcDbEntity
  8
0
  6
Continuous
 62
     7
100
AcDbLine
 10
-39.04999999999997
 20
160.1270591021415
 30
0.0
 11
-38.2
 21
160.1270591021415
 31
0.0
  0
LINE
  5
215
330
1F
100
AcDbEntity
  8
0
  6
Continuous
 62
     7
100
AcDbLine
 10
-42.2
 20
155.5270591021412
 30
0.0
 11
-43.7
 21
155.5270591021412
 31
0.0
  0
LINE
  5
216
330
1F
100
AcDbEntity
  8
1
  6
Continuous
 62
     2
100
AcDbLine
 10
-32.89999999999999
 20
151.6716743444121
 30
0.0
 11
-33.15669872981091
 21
151.2270591021413
 31
0.0
  0
LINE
  5
217
330
1F
100
AcDbEntity
  8
1
  6
Continuous
 62
     2
100
AcDbLine
 10
-33.24330127018949
 20
151.2270591021413
 30
0.0
 11
-33.50000000000001
 21
151.6716743444121
 31
0.0
  0
LINE
  5
218
330
1F
100
AcDbEntity
  8
1
  6
Continuous
 62
     2
100
AcDbLine
 10
-35.72493058254248
 20
151.1953683814438
 30
0.0
 11
-33.2
 21
152.6520591021412
 31
0.0
  0
LINE
  5
219
330
1F
100
AcDbEntity
  8
1
  6
Continuous
 62
     2
100
AcDbLine
 10
-33.2
 20
152.6520591021412
 30
0.0
 11
-30.67506941745752
 21
151.1953683814438
 31
0.0
  0
LINE
  5
21A
330
1F
100
AcDbEntity
  8
1
  6
Continuous
 62
     2
100
AcDbLine
 10
-30.67506941745752
 20
151.108749822839
 30
0.0
 11
-33.2
 21
149.6520591021412
 31
0.0
  0
LINE
  5
21B
330
1F
100
AcDbEntity
  8
1
  6
Continuous
 62
     2
100
AcDbLine
 10
-33.2
 20
149.6520591021412
 30
0.0
 11
-35.72493058254248
 21
151.108749822839
 31
0.0
  0
LINE
  5
21C
330
1F
100
AcDbEntity
  8
1
  6
Continuous
 62
     2
100
AcDbLine
 10
-33.55166989491291
 20
152.1611692276229
 30
0.0
 11
-33.2
 21
151.5520591021414
 31
0.0
  0
LINE
  5
21D
330
1F
100
AcDbEntity
  8
1
  6
Continuous
 62
     2
100
AcDbLine
 10
-33.7
 20
152.1214242957515
 30
0.0
 11
-33.7
 21
150.6563346239311
 31
0.0
  0
LINE
  5
21E
330
1F
100
AcDbEntity
  8
1
  6
Continuous
 62
     2
100
AcDbLine
 10
-33.50000000000001
 20
150.6563346239311
 30
0.0
 11
-33.50000000000001
 21
151.6716743444121
 31
0.0
  0
LINE
  5
21F
330
1F
100
AcDbEntity
  8
1
  6
Continuous
 62
     2
100
AcDbLine
 10
-32.89999999999999
 20
151.6716743444121
 30
0.0
 11
-32.89999999999999
 21
150.1945398233218
 31
0.0
  0
LINE
  5
220
330
1F
100
AcDbEntity
  8
1
  6
Continuous
 62
     2
100
AcDbLine
 10
-32.7
 20
150.1945398233218
 30
0.0
 11
-32.7
 21
152.1214242957515
 31
0.0
  0
LINE
  5
221
330
1F
100
AcDbEntity
  8
1
  6
Continuous
 62
     2
100
AcDbLine
 10
-32.84833010508699
 20
152.1611692276229
 30
0.0
 11
-33.2
 21
151.5520591021414
 31
0.0
  0
LINE
  5
222
330
1F
100
AcDbEntity
  8
1
  6
Continuous
 62
     2
100
AcDbLine
 10
-34.09999999999998
 20
150.4830654465511
 30
0.0
 11
-34.09999999999998
 21
151.8788091501916
 31
0.0
  0
LINE
  5
223
330
1F
100
AcDbEntity
  8
1
  6
Continuous
 62
     2
100
AcDbLine
 10
-33.89999999999999
 20
151.8788091501916
 30
0.0
 11
-33.89999999999999
 21
150.4830654465511
 31
0.0
  0
LINE
  5
224
330
1F
100
AcDbEntity
  8
1
  6
Continuous
 62
     2
100
AcDbLine
 10
-33.89999999999999
 20
150.4830654465511
 30
0.0
 11
-33.25002775465102
 21
150.1080814588497
 31
0.0
  0
LINE
  5
225
330
1F
100
AcDbEntity
  8
1
  6
Continuous
 62
     2
100
AcDbLine
 10
-33.34997224534898
 20
149.9348443416399
 30
0.0
 11
-33.99994449069801
 21
150.3098283293413
 31
0.0
  0
LINE
  5
226
330
1F
100
AcDbEntity
  8
1
  6
Continuous
 62
     2
100
AcDbLine
 10
-34.29999999999991
 20
151.6480399194222
 30
0.0
 11
-34.29999999999991
 21
150.6560782848603
 31
0.0
  0
LINE
  5
227
330
1F
100
AcDbEntity
  8
1
  6
Continuous
 62
     2
100
AcDbLine
 10
-34.50000000000001
 20
150.6560782848603
 30
0.0
 11
-34.50000000000001
 21
151.6480399194222
 31
0.0
  0
LINE
  5
228
330
1F
100
AcDbEntity
  8
1
  6
Continuous
 62
     2
100
AcDbLine
 10
-32.35002775465098
 20
151.9654277087963
 30
0.0
 11
-31.950027754651
 21
151.7346584780273
 31
0.0
  0
LINE
  5
229
330
1F
100
AcDbEntity
  8
1
  6
Continuous
 62
     2
100
AcDbLine
 10
-32.04997224534891
 20
151.5614213608174
 30
0.0
 11
-32.29999999999991
 21
151.705668142347
 31
0.0
  0
LINE
  5
22A
330
1F
100
AcDbEntity
  8
1
  6
Continuous
 62
     2
100
AcDbLine
 10
-32.29999999999991
 20
151.705668142347
 30
0.0
 11
-32.30000000000008
 21
151.2520591021415
 31
0.0
  0
LINE
  5
22B
330
1F
100
AcDbEntity
  8
1
  6
Continuous
 62
     2
100
AcDbLine
 10
-32.30000000000008
 20
151.2520591021415
 30
0.0
 11
-32.00000000000001
 21
151.2520591021415
 31
0.0
  0
LINE
  5
22C
330
1F
100
AcDbEntity
  8
1
  6
Continuous
 62
     2
100
AcDbLine
 10
-32.00000000000001
 20
151.0520591021414
 30
0.0
 11
-32.29999999999991
 21
151.0520591021414
 31
0.0
  0
LINE
  5
22D
330
1F
100
AcDbEntity
  8
1
  6
Continuous
 62
     2
100
AcDbLine
 10
-32.29999999999991
 20
151.0520591021414
 30
0.0
 11
-32.29999999999991
 21
150.5984500619358
 31
0.0
  0
LINE
  5
22E
330
1F
100
AcDbEntity
  8
1
  6
Continuous
 62
     2
100
AcDbLine
 10
-32.29999999999991
 20
150.5984500619358
 30
0.0
 11
-32.04997224534891
 21
150.742696843465
 31
0.0
  0
LINE
  5
22F
330
1F
100
AcDbEntity
  8
1
  6
Continuous
 62
     2
100
AcDbLine
 10
-31.950027754651
 20
150.5694597262555
 30
0.0
 11
-32.35002775465098
 21
150.3386904954861
 31
0.0
  0
LINE
  5
230
330
1F
100
AcDbEntity
  8
1
  6
Continuous
 62
     2
100
AcDbLine
 10
-32.50000000000001
 20
150.4253090540912
 30
0.0
 11
-32.50000000000001
 21
151.8788091501916
 31
0.0
  0
LINE
  5
231
330
1F
100
AcDbEntity
  8
0
  6
Continuous
 62
     7
100
AcDbLine
 10
-42.2
 20
164.1770591021414
 30
0.0
 11
-43.7
 21
164.1770591021411
 31
0.0
  0
LINE
  5
232
330
1F
100
AcDbEntity
  8
0
  6
Continuous
 62
     7
100
AcDbLine
 10
-42.2
 20
168.1519186482698
 30
0.0
 11
-42.2
 21
155.5270591021412
 31
0.0
  0
LINE
  5
233
330
1F
100
AcDbEntity
  8
0
  6
Continuous
 62
     7
100
AcDbLine
 10
-40.59999999999998
 20
160.2770591021412
 30
0.0
 11
-40.59999999999998
 21
163.7770591021412
 31
0.0
  0
LINE
  5
234
330
1F
100
AcDbEntity
  8
0
  6
Continuous
 62
     7
100
AcDbLine
 10
-43.7
 20
159.0770591021411
 30
0.0
 11
-42.2
 21
159.0770591021411
 31
0.0
  0
LINE
  5
235
102
{ACAD_REACTORS
330
489
102
}
330
1F
100
AcDbEntity
  8
0
  6
Continuous
 62
     7
100
AcDbLine
 10
-43.7
 20
165.9270591021414
 30
0.0
 11
-43.7
 21
149.7270591021413
 31
0.0
  0
LINE
  5
236
330
1F
100
AcDbEntity
  8
0
  6
Continuous
 62
     7
100
AcDbLine
 10
-41.09999999999998
 20
158.1770591021414
 30
0.0
 11
-41.09999999999998
 21
165.8770591021414
 31
0.0
  0
LINE
  5
237
330
1F
100
AcDbEntity
  8
0
  6
Continuous
 62
     7
100
AcDbLine
 10
-27.34999999999998
 20
160.2770591021412
 30
0.0
 11
-27.29999999999997
 21
160.2770591021412
 31
0.0
  0
LINE
  5
238
330
1F
100
AcDbEntity
  8
0
  6
Continuous
 62
     7
100
AcDbLine
 10
-28.45
 20
157.1770591021414
 30
0.0
 11
-28.45
 21
155.9770591021413
 31
0.0
  0
LINE
  5
239
330
1F
100
AcDbEntity
  8
0
  6
Continuous
 62
     7
100
AcDbLine
 10
-30.7
 20
153.1520591021412
 30
0.0
 11
-35.7
 21
153.1520591021412
 31
0.0
  0
LINE
  5
23A
330
1F
100
AcDbEntity
  8
0
  6
Continuous
 62
     7
100
AcDbLine
 10
-36.7
 20
152.1520591021412
 30
0.0
 11
-36.7
 21
150.1520591021412
 31
0.0
  0
LINE
  5
23B
330
1F
100
AcDbEntity
  8
0
  6
Continuous
 62
     7
100
AcDbLine
 10
-35.7
 20
149.1520591021412
 30
0.0
 11
-30.7
 21
149.1520591021412
 31
0.0
  0
LINE
  5
23C
330
1F
100
AcDbEntity
  8
0
  6
Continuous
 62
     7
100
AcDbLine
 10
-29.7
 20
150.1520591021412
 30
0.0
 11
-29.7
 21
152.1520591021412
 31
0.0
  0
LINE
  5
23D
102
{ACAD_REACTORS
330
489
102
}
330
1F
100
AcDbEntity
  8
0
  6
Continuous
 62
     7
100
AcDbLine
 10
-25.09999999999998
 20
147.3270591021411
 30
0.0
 11
-41.29999999999997
 21
147.3270591021411
 31
0.0
  0
LINE
  5
23E
330
1F
100
AcDbEntity
  8
0
  6
Continuous
 62
     7
100
AcDbLine
 10
-36.95
 20
154.9770591021413
 30
0.0
 11
-29.45
 21
154.9770591021413
 31
0.0
  0
LINE
  5
23F
330
1F
100
AcDbEntity
  8
0
  6
Continuous
 62
     7
100
AcDbLine
 10
-37.95
 20
157.1770591021414
 30
0.0
 11
-40.09999999999998
 21
157.1770591021414
 31
0.0
  0
LINE
  5
240
330
1F
100
AcDbEntity
  8
0
  6
Continuous
 62
     7
100
AcDbLine
 10
-37.95
 20
157.1770591021414
 30
0.0
 11
-37.95
 21
155.9770591021413
 31
0.0
  0
LINE
  5
241
330
1F
100
AcDbEntity
  8
0
  6
Continuous
 62
     7
100
AcDbLine
 10
-41.09999999999998
 20
164.6770591021414
 30
0.0
 11
-39.09999999999998
 21
164.6770591021414
 31
0.0
  0
LINE
  5
242
102
{ACAD_REACTORS
330
489
102
}
330
1F
100
AcDbEntity
  8
0
  6
Continuous
 62
     7
100
AcDbLine
 10
-41.29999999999997
 20
168.327059102141
 30
0.0
 11
-25.09999999999998
 21
168.327059102141
 31
0.0
  0
LINE
  5
243
330
1F
100
AcDbEntity
  8
0
  6
Continuous
 62
     7
100
AcDbLine
 10
-26.29999999999997
 20
166.8770591021414
 30
0.0
 11
-40.09999999999998
 21
166.8770591021414
 31
0.0
  0
LINE
  5
244
330
1F
100
AcDbEntity
  8
0
  6
Continuous
 62
     7
100
AcDbLine
 10
-39.04999999999997
 20
163.7770591021412
 30
0.0
 11
-39.09999999999998
 21
163.7770591021412
 31
0.0
  0
LINE
  5
245
330
1F
100
AcDbEntity
  8
0
  6
Continuous
 62
     7
100
AcDbLine
 10
-27.34999999999998
 20
163.7770591021412
 30
0.0
 11
-27.29999999999997
 21
163.7770591021412
 31
0.0
  0
LINE
  5
246
330
1F
100
AcDbEntity
  8
0
  6
Continuous
 62
     7
100
AcDbLine
 10
-39.09999999999998
 20
163.7770591021412
 30
0.0
 11
-40.59999999999998
 21
163.7770591021412
 31
0.0
  0
LINE
  5
247
102
{ACAD_REACTORS
330
489
102
}
330
1F
100
AcDbEntity
  8
0
  6
Continuous
 62
     7
100
AcDbLine
 10
-22.7
 20
165.9270591021414
 30
0.0
 11
-22.7
 21
149.7270591021413
 31
0.0
  0
LINE
  5
248
330
1F
100
AcDbEntity
  8
0
  6
Continuous
 62
     7
100
AcDbLine
 10
-24.2
 20
168.1519186482698
 30
0.0
 11
-24.2
 21
155.5270591021412
 31
0.0
  0
LINE
  5
249
330
1F
100
AcDbEntity
  8
0
  6
Continuous
 62
     7
100
AcDbLine
 10
-24.2
 20
159.0770591021411
 30
0.0
 11
-22.7
 21
159.0770591021411
 31
0.0
  0
LINE
  5
24A
330
1F
100
AcDbEntity
  8
0
  6
Continuous
 62
     7
100
AcDbLine
 10
-22.7
 20
155.5270591021412
 30
0.0
 11
-24.2
 21
155.5270591021412
 31
0.0
  0
LINE
  5
24B
330
1F
100
AcDbEntity
  8
0
  6
Continuous
 62
     7
100
AcDbLine
 10
-27.29999999999997
 20
160.2770591021412
 30
0.0
 11
-25.79999999999997
 21
160.2770591021412
 31
0.0
  0
LINE
  5
24C
330
1F
100
AcDbEntity
  8
0
  6
Continuous
 62
     7
100
AcDbLine
 10
-25.79999999999997
 20
163.7770591021412
 30
0.0
 11
-25.79999999999997
 21
160.2770591021412
 31
0.0
  0
LINE
  5
24D
330
1F
100
AcDbEntity
  8
0
  6
Continuous
 62
     7
100
AcDbLine
 10
-22.7
 20
164.1770591021414
 30
0.0
 11
-24.2
 21
164.1770591021414
 31
0.0
  0
LINE
  5
24E
330
1F
100
AcDbEntity
  8
0
  6
Continuous
 62
     7
100
AcDbLine
 10
-39.09999999999998
 20
159.3770591021415
 30
0.0
 11
-41.09999999999998
 21
159.3770591021415
 31
0.0
  0
LINE
  5
24F
330
1F
100
AcDbEntity
  8
0
  6
Continuous
 62
     7
100
AcDbLine
 10
-25.29999999999997
 20
159.3770591021415
 30
0.0
 11
-27.29999999999997
 21
159.3770591021415
 31
0.0
  0
LINE
  5
250
330
1F
100
AcDbEntity
  8
0
  6
Continuous
 62
     7
100
AcDbLine
 10
-39.09999999999998
 20
163.2770591021412
 30
0.0
 11
-39.54081745177122
 21
163.2770591021412
 31
0.0
  0
LINE
  5
251
330
1F
100
AcDbEntity
  8
0
  6
Continuous
 62
     7
100
AcDbLine
 10
-39.09999999999998
 20
160.7770591021412
 30
0.0
 11
-39.54081745177122
 21
160.7770591021412
 31
0.0
  0
LINE
  5
252
330
1F
100
AcDbEntity
  8
0
  6
Continuous
 62
     7
100
AcDbLine
 10
-39.04999999999997
 20
160.2770591021412
 30
0.0
 11
-39.09999999999998
 21
160.2770591021412
 31
0.0
  0
LINE
  5
253
330
1F
100
AcDbEntity
  8
0
  6
Continuous
 62
     7
100
AcDbLine
 10
-40.59999999999998
 20
160.2770591021412
 30
0.0
 11
-39.09999999999998
 21
160.2770591021412
 31
0.0
  0
LINE
  5
254
330
1F
100
AcDbEntity
  8
0
  6
Continuous
 62
     7
100
AcDbLine
 10
-39.54081745177122
 20
160.7770591021412
 30
0.0
 11
-39.54081745177122
 21
163.2770591021412
 31
0.0
  0
LINE
  5
255
330
1F
100
AcDbEntity
  8
0
  6
Continuous
 62
     7
100
AcDbLine
 10
-40.09999999999998
 20
160.2770591021412
 30
0.0
 11
-40.09999999999998
 21
163.7770591021412
 31
0.0
  0
LINE
  5
256
330
1F
100
AcDbEntity
  8
0
  6
Continuous
 62
     7
100
AcDbLine
 10
-25.29999999999997
 20
158.1770591021414
 30
0.0
 11
-25.29999999999997
 21
165.8770591021414
 31
0.0
  0
LINE
  5
257
330
1F
100
AcDbEntity
  8
0
  6
Continuous
 62
     7
100
AcDbLine
 10
-27.29999999999997
 20
164.6770591021414
 30
0.0
 11
-25.29999999999997
 21
164.6770591021414
 31
0.0
  0
LINE
  5
258
330
1F
100
AcDbEntity
  8
0
  6
Continuous
 62
     7
100
AcDbLine
 10
-27.29999999999997
 20
163.7770591021412
 30
0.0
 11
-25.79999999999997
 21
163.7770591021412
 31
0.0
  0
LINE
  5
259
330
1F
100
AcDbEntity
  8
0
  6
Continuous
 62
     7
100
AcDbLine
 10
-26.29999999999997
 20
163.7770591021412
 30
0.0
 11
-26.29999999999997
 21
160.2770591021412
 31
0.0
  0
LINE
  5
25A
330
1F
100
AcDbEntity
  8
0
  6
Continuous
 62
     7
100
AcDbLine
 10
-26.85918254822879
 20
160.7770591021412
 30
0.0
 11
-27.29999999999997
 21
160.7770591021412
 31
0.0
  0
LINE
  5
25B
330
1F
100
AcDbEntity
  8
0
  6
Continuous
 62
     7
100
AcDbLine
 10
-26.85918254822879
 20
163.2770591021412
 30
0.0
 11
-27.29999999999997
 21
163.2770591021412
 31
0.0
  0
LINE
  5
25C
330
1F
100
AcDbEntity
  8
0
  6
Continuous
 62
     7
100
AcDbLine
 10
-26.85918254822879
 20
163.2770591021412
 30
0.0
 11
-26.85918254822879
 21
160.7770591021412
 31
0.0
  0
LINE
  5
25D
330
1F
100
AcDbEntity
  8
0
  6
Continuous
 62
     7
100
AcDbLine
 10
-26.29999999999997
 20
157.1770591021414
 30
0.0
 11
-28.45
 21
157.1770591021414
 31
0.0
  0
LINE
  5
25E
330
1F
100
AcDbEntity
  8
0
  6
Continuous
 62
     7
100
AcDbLine
 10
-36.02499999999988
 20
163.3270591021412
 30
0.0
 11
-35.47499999999998
 21
163.3270591021412
 31
0.0
  0
LINE
  5
25F
330
1F
100
AcDbEntity
  8
0
  6
Continuous
 62
     7
100
AcDbLine
 10
-37.64999999999999
 20
162.1270591021415
 30
0.0
 11
-38.2
 21
162.1270591021415
 31
0.0
  0
LINE
  5
260
330
1F
100
AcDbEntity
  8
0
  6
Continuous
 62
     7
100
AcDbLine
 10
-33.98499999999997
 20
163.3270591021412
 30
0.0
 11
-33.43500000000002
 21
163.3270591021412
 31
0.0
  0
LINE
  5
261
330
1F
100
AcDbEntity
  8
0
  6
Continuous
 62
     7
100
AcDbLine
 10
-37.04499999999997
 20
163.3270591021412
 30
0.0
 11
-36.49500000000002
 21
163.3270591021411
 31
0.0
  0
LINE
  5
262
330
1F
100
AcDbEntity
  8
0
  6
Continuous
 62
     7
100
AcDbLine
 10
-28.2
 20
162.1270591021415
 30
0.0
 11
-28.75000000000001
 21
162.1270591021415
 31
0.0
  0
LINE
  5
263
330
1F
100
AcDbEntity
  8
0
  6
Continuous
 62
     7
100
AcDbLine
 10
-35.00500000000001
 20
163.3270591021412
 30
0.0
 11
-34.455
 21
163.3270591021412
 31
0.0
  0
LINE
  5
264
330
1F
100
AcDbEntity
  8
0
  6
Continuous
 62
     7
100
AcDbLine
 10
-37.64999999999999
 20
161.7270591021413
 30
0.0
 11
-34.00000000000001
 21
161.7270591021413
 31
0.0
  0
LINE
  5
265
330
1F
100
AcDbEntity
  8
0
  6
Continuous
 62
     7
100
AcDbLine
 10
-30.2
 20
160.1270591021415
 30
0.0
 11
-28.75000000000001
 21
160.1270591021415
 31
0.0
  0
LINE
  5
266
330
1F
100
AcDbEntity
  8
0
  6
Continuous
 62
     7
100
AcDbLine
 10
-37.64999999999999
 20
160.1270591021415
 30
0.0
 11
-36.2
 21
160.1270591021415
 31
0.0
  0
LINE
  5
267
330
1F
100
AcDbEntity
  8
0
  6
Continuous
 62
     7
100
AcDbLine
 10
-37.64999999999999
 20
158.7270591021413
 30
0.0
 11
-37.64999999999999
 21
162.1270591021415
 31
0.0
  0
LINE
  5
268
330
1F
100
AcDbEntity
  8
0
  6
Continuous
 62
     7
100
AcDbLine
 10
-27.34999999999998
 20
158.7270591021413
 30
0.0
 11
-30.2
 21
158.7270591021413
 31
0.0
  0
LINE
  5
269
330
1F
100
AcDbEntity
  8
0
  6
Continuous
 62
     7
100
AcDbLine
 10
-39.04999999999997
 20
165.327059102141
 30
0.0
 11
-39.04999999999997
 21
158.7270591021413
 31
0.0
  0
LINE
  5
26A
330
1F
100
AcDbEntity
  8
0
  6
Continuous
 62
     7
100
AcDbLine
 10
-28.75000000000001
 20
158.7270591021413
 30
0.0
 11
-28.75000000000001
 21
162.1270591021415
 31
0.0
  0
LINE
  5
26B
330
1F
100
AcDbEntity
  8
0
  6
Continuous
 62
     7
100
AcDbLine
 10
-36.2
 20
158.7270591021413
 30
0.0
 11
-39.04999999999997
 21
158.7270591021413
 31
0.0
  0
LINE
  5
26C
330
1F
100
AcDbEntity
  8
0
  6
Continuous
 62
     7
100
AcDbLine
 10
-36.2
 20
160.1270591021415
 30
0.0
 11
-32.2
 21
160.1270591021415
 31
0.0
  0
LINE
  5
26D
330
1F
100
AcDbEntity
  8
0
  6
Continuous
 62
     7
100
AcDbLine
 10
-36.2
 20
160.1270591021415
 30
0.0
 11
-36.2
 21
156.8270591021411
 31
0.0
  0
LINE
  5
26E
330
1F
100
AcDbEntity
  8
0
  6
Continuous
 62
     7
100
AcDbLine
 10
-32.96499999999999
 20
163.3270591021412
 30
0.0
 11
-32.41499999999998
 21
163.3270591021412
 31
0.0
  0
LINE
  5
26F
330
1F
100
AcDbEntity
  8
0
  6
Continuous
 62
     7
100
AcDbLine
 10
-31.94500000000001
 20
163.3270591021412
 30
0.0
 11
-31.395
 21
163.3270591021412
 31
0.0
  0
LINE
  5
270
330
1F
100
AcDbEntity
  8
0
  6
Continuous
 62
     7
100
AcDbLine
 10
-30.92499999999997
 20
163.3270591021412
 30
0.0
 11
-30.37500000000001
 21
163.3270591021411
 31
0.0
  0
LINE
  5
271
330
1F
100
AcDbEntity
  8
0
  6
Continuous
 62
     7
100
AcDbLine
 10
-29.90499999999999
 20
163.3270591021411
 30
0.0
 11
-29.35499999999998
 21
163.3270591021411
 31
0.0
  0
LINE
  5
272
330
1F
100
AcDbEntity
  8
0
  6
Continuous
 62
     7
100
AcDbLine
 10
-30.2
 20
160.1270591021415
 30
0.0
 11
-30.2
 21
156.8270591021411
 31
0.0
  0
LINE
  5
273
330
1F
100
AcDbEntity
  8
0
  6
Continuous
 62
     7
100
AcDbLine
 10
-31.59999999999998
 20
156.7270591021413
 30
0.0
 11
-31.59999999999998
 21
156.6770591021414
 31
0.0
  0
LINE
  5
274
330
1F
100
AcDbEntity
  8
0
  6
Continuous
 62
     7
100
AcDbLine
 10
-34.79999999999997
 20
156.7270591021413
 30
0.0
 11
-31.59999999999998
 21
156.7270591021413
 31
0.0
  0
LINE
  5
275
330
1F
100
AcDbEntity
  8
0
  6
Continuous
 62
     7
100
AcDbLine
 10
-31.59999999999998
 20
156.8270591021411
 30
0.0
 11
-30.2
 21
156.8270591021411
 31
0.0
  0
LINE
  5
276
330
1F
100
AcDbEntity
  8
0
  6
Continuous
 62
     7
100
AcDbLine
 10
-31.59999999999998
 20
156.8270591021411
 30
0.0
 11
-31.59999999999998
 21
156.7270591021413
 31
0.0
  0
LINE
  5
277
330
1F
100
AcDbEntity
  8
0
  6
Continuous
 62
     7
100
AcDbLine
 10
-34.79999999999997
 20
156.8270591021411
 30
0.0
 11
-36.2
 21
156.8270591021411
 31
0.0
  0
LINE
  5
278
330
1F
100
AcDbEntity
  8
0
  6
Continuous
 62
     7
100
AcDbLine
 10
-34.79999999999997
 20
156.7270591021413
 30
0.0
 11
-34.79999999999997
 21
156.6770591021414
 31
0.0
  0
LINE
  5
279
330
1F
100
AcDbEntity
  8
0
  6
Continuous
 62
     7
100
AcDbLine
 10
-34.79999999999997
 20
156.8270591021411
 30
0.0
 11
-34.79999999999997
 21
156.7270591021413
 31
0.0
  0
LINE
  5
27A
330
1F
100
AcDbEntity
  8
0
  6
Continuous
 62
     7
100
AcDbLine
 10
-27.34999999999998
 20
165.3270591021411
 30
0.0
 11
-39.04999999999997
 21
165.327059102141
 31
0.0
  0
LINE
  5
27B
330
1F
100
AcDbEntity
  8
0
  6
Continuous
 62
     7
100
AcDbLine
 10
-35.47499999999998
 20
165.327059102141
 30
0.0
 11
-35.47499999999998
 21
163.3270591021412
 31
0.0
  0
LINE
  5
27C
330
1F
100
AcDbEntity
  8
0
  6
Continuous
 62
     7
100
AcDbLine
 10
-35.00500000000001
 20
165.327059102141
 30
0.0
 11
-35.00500000000001
 21
163.3270591021412
 31
0.0
  0
LINE
  5
27D
330
1F
100
AcDbEntity
  8
0
  6
Continuous
 62
     7
100
AcDbLine
 10
-36.02499999999988
 20
165.3270591021411
 30
0.0
 11
-36.02499999999988
 21
163.3270591021412
 31
0.0
  0
LINE
  5
27E
330
1F
100
AcDbEntity
  8
0
  6
Continuous
 62
     7
100
AcDbLine
 10
-36.49500000000002
 20
165.3270591021411
 30
0.0
 11
-36.49500000000002
 21
163.3270591021411
 31
0.0
  0
LINE
  5
27F
330
1F
100
AcDbEntity
  8
0
  6
Continuous
 62
     7
100
AcDbLine
 10
-34.455
 20
165.3270591021411
 30
0.0
 11
-34.455
 21
163.3270591021412
 31
0.0
  0
LINE
  5
280
330
1F
100
AcDbEntity
  8
0
  6
Continuous
 62
     7
100
AcDbLine
 10
-37.04499999999997
 20
165.327059102141
 30
0.0
 11
-37.04499999999997
 21
163.3270591021412
 31
0.0
  0
LINE
  5
281
330
1F
100
AcDbEntity
  8
0
  6
Continuous
 62
     7
100
AcDbLine
 10
-30.37500000000001
 20
165.3270591021411
 30
0.0
 11
-30.37500000000001
 21
163.3270591021411
 31
0.0
  0
LINE
  5
282
330
1F
100
AcDbEntity
  8
0
  6
Continuous
 62
     7
100
AcDbLine
 10
-29.90499999999999
 20
165.327059102141
 30
0.0
 11
-29.90499999999999
 21
163.3270591021411
 31
0.0
  0
LINE
  5
283
330
1F
100
AcDbEntity
  8
0
  6
Continuous
 62
     7
100
AcDbLine
 10
-32.41499999999998
 20
165.327059102141
 30
0.0
 11
-32.41499999999998
 21
163.3270591021412
 31
0.0
  0
LINE
  5
284
330
1F
100
AcDbEntity
  8
0
  6
Continuous
 62
     7
100
AcDbLine
 10
-31.94500000000001
 20
165.3270591021411
 30
0.0
 11
-31.94500000000001
 21
163.3270591021412
 31
0.0
  0
LINE
  5
285
330
1F
100
AcDbEntity
  8
0
  6
Continuous
 62
     7
100
AcDbLine
 10
-33.98499999999997
 20
165.3270591021411
 30
0.0
 11
-33.98499999999997
 21
163.3270591021412
 31
0.0
  0
LINE
  5
286
330
1F
100
AcDbEntity
  8
0
  6
Continuous
 62
     7
100
AcDbLine
 10
-31.395
 20
165.3270591021411
 30
0.0
 11
-31.395
 21
163.3270591021412
 31
0.0
  0
LINE
  5
287
330
1F
100
AcDbEntity
  8
0
  6
Continuous
 62
     7
100
AcDbLine
 10
-33.43500000000002
 20
165.3270591021411
 30
0.0
 11
-33.43500000000002
 21
163.3270591021412
 31
0.0
  0
LINE
  5
288
330
1F
100
AcDbEntity
  8
0
  6
Continuous
 62
     7
100
AcDbLine
 10
-32.96499999999999
 20
165.3270591021411
 30
0.0
 11
-32.96499999999999
 21
163.3270591021412
 31
0.0
  0
LINE
  5
289
330
1F
100
AcDbEntity
  8
0
  6
Continuous
 62
     7
100
AcDbLine
 10
-29.35499999999998
 20
165.3270591021411
 30
0.0
 11
-29.35499999999998
 21
163.3270591021411
 31
0.0
  0
LINE
  5
28A
330
1F
100
AcDbEntity
  8
0
  6
Continuous
 62
     7
100
AcDbLine
 10
-30.92499999999997
 20
165.3270591021411
 30
0.0
 11
-30.92499999999997
 21
163.3270591021412
 31
0.0
  0
LINE
  5
28B
330
1F
100
AcDbEntity
  8
0
  6
Continuous
 62
     7
100
AcDbLine
 10
-36.2
 20
157.5270591021412
 30
0.0
 11
-30.2
 21
157.5270591021412
 31
0.0
  0
LINE
  5
28C
330
1F
100
AcDbEntity
  8
0
  6
Continuous
 62
     7
100
AcDbLine
 10
-38.2
 20
162.1270591021415
 30
0.0
 11
-38.2
 21
158.7270591021413
 31
0.0
  0
LINE
  5
28D
330
1F
100
AcDbEntity
  8
0
  6
Continuous
 62
     7
100
AcDbLine
 10
-27.34999999999998
 20
158.7270591021413
 30
0.0
 11
-27.34999999999998
 21
165.3270591021411
 31
0.0
  0
LINE
  5
28E
330
1F
100
AcDbEntity
  8
0
  6
Continuous
 62
     7
100
AcDbLine
 10
-28.2
 20
158.7270591021413
 30
0.0
 11
-28.2
 21
162.1270591021415
 31
0.0
  0
LINE
  5
28F
330
1F
100
AcDbEntity
  8
1
  6
Continuous
 62
     7
100
AcDbLine
 10
-15.7
 20
156.5270591021412
 30
0.0
 11
-19.95
 21
156.5270591021412
 31
0.0
  0
LINE
  5
290
330
1F
100
AcDbEntity
  8
1
  6
Continuous
 62
     7
100
AcDbLine
 10
-19.95
 20
159.5270591021412
 30
0.0
 11
-15.7
 21
159.5270591021412
 31
0.0
  0
LINE
  5
291
330
1F
100
AcDbEntity
  8
1
  6
Continuous
 62
     7
100
AcDbLine
 10
-50.7
 20
156.5270591021412
 30
0.0
 11
-46.45
 21
156.5270591021412
 31
0.0
  0
LINE
  5
292
330
1F
100
AcDbEntity
  8
1
  6
Continuous
 62
     7
100
AcDbLine
 10
-50.7
 20
159.5270591021412
 30
0.0
 11
-46.45
 21
159.5270591021412
 31
0.0
  0
LINE
  5
293
330
1F
100
AcDbEntity
  8
1
  6
Continuous
 62
     7
100
AcDbLine
 10
-15.7
 20
159.5270591021412
 30
0.0
 11
-15.7
 21
156.5270591021412
 31
0.0
  0
LINE
  5
294
330
1F
100
AcDbEntity
  8
1
  6
Continuous
 62
     7
100
AcDbLine
 10
-50.7
 20
159.5270591021412
 30
0.0
 11
-50.7
 21
156.5270591021412
 31
0.0
  0
LINE
  5
295
330
1F
100
AcDbEntity
  8
1
  6
Continuous
 62
     7
100
AcDbLine
 10
-19.95
 20
148.2770591021412
 30
0.0
 11
-19.95
 21
167.7770591021412
 31
0.0
  0
LINE
  5
296
330
1F
100
AcDbEntity
  8
1
  6
Continuous
 62
     7
100
AcDbLine
 10
-46.45
 20
167.7770591021412
 30
0.0
 11
-46.45
 21
148.2770591021412
 31
0.0
  0
LINE
  5
297
330
1F
100
AcDbEntity
  8
1
  6
Continuous
 62
     7
100
AcDbLine
 10
-42.95
 20
144.7770591021412
 30
0.0
 11
-23.45
 21
144.7770591021412
 31
0.0
  0
LINE
  5
298
330
1F
100
AcDbEntity
  8
1
  6
Continuous
 62
     7
100
AcDbLine
 10
-42.95
 20
171.2770591021412
 30
0.0
 11
-23.45
 21
171.2770591021412
 31
0.0
  0
LINE
  5
299
102
{ACAD_REACTORS
330
489
102
}
330
1F
100
AcDbEntity
  8
1
  6
Continuous
 62
     7
100
AcDbLine
 10
-43.24999999999996
 20
145.9770591021413
 30
0.0
 11
-23.14999999999982
 21
145.9770591021413
 31
0.0
  0
LINE
  5
29A
102
{ACAD_REACTORS
330
489
102
}
330
1F
100
AcDbEntity
  8
1
  6
Continuous
 62
     7
100
AcDbLine
 10
-43.24999999999996
 20
170.0770591021411
 30
0.0
 11
-23.14999999999982
 21
170.0770591021411
 31
0.0
  0
LINE
  5
29B
102
{ACAD_REACTORS
330
489
102
}
330
1F
100
AcDbEntity
  8
1
  6
Continuous
 62
     7
100
AcDbLine
 10
-21.14999999999982
 20
168.0770591021411
 30
0.0
 11
-21.14999999999982
 21
147.9770591021413
 31
0.0
  0
LINE
  5
29C
102
{ACAD_REACTORS
330
489
102
}
330
1F
100
AcDbEntity
  8
1
  6
Continuous
 62
     7
100
AcDbLine
 10
-45.24999999999996
 20
168.0770591021411
 30
0.0
 11
-45.24999999999996
 21
147.9770591021413
 31
0.0
  0
LINE
  5
29D
330
1F
100
AcDbEntity
  8
1
  6
Continuous
 62
     7
100
AcDbLine
 10
-145.3500000000001
 20
161.5270591021414
 30
0.0
 11
-150.9000000000002
 21
161.5270591021414
 31
0.0
  0
LINE
  5
29E
330
1F
100
AcDbEntity
  8
1
  6
Continuous
 62
     7
100
AcDbLine
 10
-150.9000000000002
 20
154.5270591021414
 30
0.0
 11
-145.3500000000001
 21
154.5270591021414
 31
0.0
  0
LINE
  5
29F
330
1F
100
AcDbEntity
  8
1
  6
Continuous
 62
     7
100
AcDbLine
 10
-159.4500000000002
 20
154.5270591021414
 30
0.0
 11
-153.9000000000002
 21
154.5270591021414
 31
0.0
  0
LINE
  5
2A0
330
1F
100
AcDbEntity
  8
1
  6
Continuous
 62
     7
100
AcDbLine
 10
-153.9000000000002
 20
161.5270591021414
 30
0.0
 11
-159.4500000000002
 21
161.5270591021414
 31
0.0
  0
LINE
  5
2A1
330
1F
100
AcDbEntity
  8
1
  6
Continuous
 62
     7
100
AcDbLine
 10
-153.9000000000002
 20
105.7270591021412
 30
0.0
 11
-159.4500000000002
 21
105.7270591021412
 31
0.0
  0
LINE
  5
2A2
330
1F
100
AcDbEntity
  8
1
  6
Continuous
 62
     7
100
AcDbLine
 10
-159.4500000000002
 20
98.7270591021412
 30
0.0
 11
-153.9000000000002
 21
98.7270591021412
 31
0.0
  0
LINE
  5
2A3
330
1F
100
AcDbEntity
  8
1
  6
Continuous
 62
     7
100
AcDbLine
 10
-150.9000000000002
 20
98.7270591021412
 30
0.0
 11
-145.3500000000001
 21
98.7270591021412
 31
0.0
  0
LINE
  5
2A4
330
1F
100
AcDbEntity
  8
1
  6
Continuous
 62
     7
100
AcDbLine
 10
-145.3500000000001
 20
105.7270591021412
 30
0.0
 11
-150.9000000000002
 21
105.7270591021412
 31
0.0
  0
LINE
  5
2A5
330
1F
100
AcDbEntity
  8
0
  6
Continuous
 62
     7
100
AcDbLine
 10
-61.65000000000012
 20
107.9770591021412
 30
0.0
 11
-61.65000000000012
 21
108.0770591021413
 31
0.0
  0
LINE
  5
2A6
330
1F
100
AcDbEntity
  8
0
  6
Continuous
 62
     7
100
AcDbLine
 10
-61.65000000000012
 20
108.0770591021413
 30
0.0
 11
-54.75000000000003
 21
108.0770591021413
 31
0.0
  0
LINE
  5
2A7
330
1F
100
AcDbEntity
  8
0
  6
Continuous
 62
     7
100
AcDbLine
 10
-54.04999999999998
 20
108.0770591021413
 30
0.0
 11
-54.75000000000003
 21
108.0770591021413
 31
0.0
  0
LINE
  5
2A8
330
1F
100
AcDbEntity
  8
0
  6
Continuous
 62
     7
100
AcDbLine
 10
-54.04999999999998
 20
106.0720591021412
 30
0.0
 11
-54.04999999999998
 21
108.0770591021413
 31
0.0
  0
LINE
  5
2A9
330
1F
100
AcDbEntity
  8
0
  6
Continuous
 62
     7
100
AcDbLine
 10
-60.45000000000007
 20
101.4420591021411
 30
0.0
 11
-60.45000000000007
 21
101.9920591021413
 31
0.0
  0
LINE
  5
2AA
330
1F
100
AcDbEntity
  8
0
  6
Continuous
 62
     7
100
AcDbLine
 10
-60.45000000000007
 20
100.4220591021411
 30
0.0
 11
-60.45000000000007
 21
100.9720591021413
 31
0.0
  0
LINE
  5
2AB
330
1F
100
AcDbEntity
  8
0
  6
Continuous
 62
     7
100
AcDbLine
 10
-60.45000000000007
 20
98.38205910214117
 30
0.0
 11
-60.45000000000007
 21
98.93205910214135
 31
0.0
  0
LINE
  5
2AC
330
1F
100
AcDbEntity
  8
0
  6
Continuous
 62
     7
100
AcDbLine
 10
-60.45000000000007
 20
99.40205910214115
 30
0.0
 11
-60.45000000000007
 21
99.95205910214133
 31
0.0
  0
LINE
  5
2AD
330
1F
100
AcDbEntity
  8
0
  6
Continuous
 62
     7
100
AcDbLine
 10
-60.45000000000007
 20
98.38205910214117
 30
0.0
 11
-54.75000000000003
 21
98.38205910214117
 31
0.0
  0
LINE
  5
2AE
330
1F
100
AcDbEntity
  8
0
  6
Continuous
 62
     7
100
AcDbLine
 10
-54.75000000000003
 20
98.93205910214135
 30
0.0
 11
-60.45000000000007
 21
98.93205910214135
 31
0.0
  0
LINE
  5
2AF
330
1F
100
AcDbEntity
  8
0
  6
Continuous
 62
     7
100
AcDbLine
 10
-54.04999999999998
 20
101.4420591021411
 30
0.0
 11
-54.75000000000003
 21
101.4420591021411
 31
0.0
  0
LINE
  5
2B0
330
1F
100
AcDbEntity
  8
0
  6
Continuous
 62
     7
100
AcDbLine
 10
-60.45000000000007
 20
101.4420591021411
 30
0.0
 11
-54.75000000000003
 21
101.4420591021411
 31
0.0
  0
LINE
  5
2B1
330
1F
100
AcDbEntity
  8
0
  6
Continuous
 62
     7
100
AcDbLine
 10
-54.75000000000003
 20
99.95205910214133
 30
0.0
 11
-60.45000000000007
 21
99.95205910214133
 31
0.0
  0
LINE
  5
2B2
330
1F
100
AcDbEntity
  8
0
  6
Continuous
 62
     7
100
AcDbLine
 10
-54.04999999999998
 20
100.4220591021411
 30
0.0
 11
-54.75000000000003
 21
100.4220591021411
 31
0.0
  0
LINE
  5
2B3
330
1F
100
AcDbEntity
  8
0
  6
Continuous
 62
     7
100
AcDbLine
 10
-60.45000000000007
 20
100.4220591021411
 30
0.0
 11
-54.75000000000003
 21
100.4220591021411
 31
0.0
  0
LINE
  5
2B4
330
1F
100
AcDbEntity
  8
0
  6
Continuous
 62
     7
100
AcDbLine
 10
-54.04999999999998
 20
101.9920591021413
 30
0.0
 11
-54.75000000000003
 21
101.9920591021413
 31
0.0
  0
LINE
  5
2B5
330
1F
100
AcDbEntity
  8
0
  6
Continuous
 62
     7
100
AcDbLine
 10
-54.75000000000003
 20
101.9920591021413
 30
0.0
 11
-60.45000000000007
 21
101.9920591021413
 31
0.0
  0
LINE
  5
2B6
330
1F
100
AcDbEntity
  8
0
  6
Continuous
 62
     7
100
AcDbLine
 10
-54.04999999999998
 20
101.4420591021411
 30
0.0
 11
-54.04999999999998
 21
101.9920591021413
 31
0.0
  0
LINE
  5
2B7
330
1F
100
AcDbEntity
  8
0
  6
Continuous
 62
     7
100
AcDbLine
 10
-54.04999999999998
 20
100.4220591021411
 30
0.0
 11
-54.04999999999998
 21
100.9720591021413
 31
0.0
  0
LINE
  5
2B8
330
1F
100
AcDbEntity
  8
0
  6
Continuous
 62
     7
100
AcDbLine
 10
-54.04999999999998
 20
100.9720591021413
 30
0.0
 11
-54.04999999999998
 21
101.4420591021411
 31
0.0
  0
LINE
  5
2B9
330
1F
100
AcDbEntity
  8
0
  6
Continuous
 62
     7
100
AcDbLine
 10
-54.04999999999998
 20
98.93205910214135
 30
0.0
 11
-54.75000000000003
 21
98.93205910214135
 31
0.0
  0
LINE
  5
2BA
330
1F
100
AcDbEntity
  8
0
  6
Continuous
 62
     7
100
AcDbLine
 10
-54.04999999999998
 20
98.38205910214117
 30
0.0
 11
-54.75000000000003
 21
98.38205910214117
 31
0.0
  0
LINE
  5
2BB
330
1F
100
AcDbEntity
  8
0
  6
Continuous
 62
     7
100
AcDbLine
 10
-54.04999999999998
 20
98.38205910214117
 30
0.0
 11
-54.04999999999998
 21
98.93205910214135
 31
0.0
  0
LINE
  5
2BC
330
1F
100
AcDbEntity
  8
0
  6
Continuous
 62
     7
100
AcDbLine
 10
-54.04999999999998
 20
96.37705910214129
 30
0.0
 11
-54.04999999999998
 21
98.38205910214117
 31
0.0
  0
LINE
  5
2BD
330
1F
100
AcDbEntity
  8
0
  6
Continuous
 62
     7
100
AcDbLine
 10
-54.04999999999998
 20
100.9720591021413
 30
0.0
 11
-54.75000000000003
 21
100.9720591021413
 31
0.0
  0
LINE
  5
2BE
330
1F
100
AcDbEntity
  8
0
  6
Continuous
 62
     7
100
AcDbLine
 10
-54.75000000000003
 20
100.9720591021413
 30
0.0
 11
-60.45000000000007
 21
100.9720591021413
 31
0.0
  0
LINE
  5
2BF
330
1F
100
AcDbEntity
  8
0
  6
Continuous
 62
     7
100
AcDbLine
 10
-54.04999999999998
 20
99.40205910214115
 30
0.0
 11
-54.04999999999998
 21
99.95205910214133
 31
0.0
  0
LINE
  5
2C0
330
1F
100
AcDbEntity
  8
0
  6
Continuous
 62
     7
100
AcDbLine
 10
-54.04999999999998
 20
99.95205910214133
 30
0.0
 11
-54.75000000000003
 21
99.95205910214133
 31
0.0
  0
LINE
  5
2C1
330
1F
100
AcDbEntity
  8
0
  6
Continuous
 62
     7
100
AcDbLine
 10
-54.04999999999998
 20
99.95205910214133
 30
0.0
 11
-54.04999999999998
 21
100.4220591021411
 31
0.0
  0
LINE
  5
2C2
330
1F
100
AcDbEntity
  8
0
  6
Continuous
 62
     7
100
AcDbLine
 10
-60.45000000000007
 20
99.40205910214115
 30
0.0
 11
-54.75000000000003
 21
99.40205910214115
 31
0.0
  0
LINE
  5
2C3
330
1F
100
AcDbEntity
  8
0
  6
Continuous
 62
     7
100
AcDbLine
 10
-54.04999999999998
 20
99.40205910214115
 30
0.0
 11
-54.75000000000003
 21
99.40205910214115
 31
0.0
  0
LINE
  5
2C4
330
1F
100
AcDbEntity
  8
0
  6
Continuous
 62
     7
100
AcDbLine
 10
-54.04999999999998
 20
98.93205910214135
 30
0.0
 11
-54.04999999999998
 21
99.40205910214115
 31
0.0
  0
LINE
  5
2C5
330
1F
100
AcDbEntity
  8
0
  6
Continuous
 62
     7
100
AcDbLine
 10
-53.85000000000017
 20
97.77705910214115
 30
0.0
 11
-54.04999999999998
 21
97.77705910214115
 31
0.0
  0
LINE
  5
2C6
330
1F
100
AcDbEntity
  8
0
  6
Continuous
 62
     7
100
AcDbLine
 10
-53.85000000000017
 20
106.6770591021412
 30
0.0
 11
-53.85000000000017
 21
97.77705910214115
 31
0.0
  0
LINE
  5
2C7
330
1F
100
AcDbEntity
  8
0
  6
Continuous
 62
     7
100
AcDbLine
 10
-61.65000000000012
 20
96.37705910214129
 30
0.0
 11
-54.75000000000003
 21
96.37705910214129
 31
0.0
  0
LINE
  5
2C8
330
1F
100
AcDbEntity
  8
0
  6
Continuous
 62
     7
100
AcDbLine
 10
-65.95000000000007
 20
96.37705910214129
 30
0.0
 11
-61.75000000000003
 21
96.37705910214129
 31
0.0
  0
LINE
  5
2C9
330
1F
100
AcDbEntity
  8
0
  6
Continuous
 62
     7
100
AcDbLine
 10
-61.65000000000012
 20
96.37705910214129
 30
0.0
 11
-61.65000000000012
 21
96.4770591021412
 31
0.0
  0
LINE
  5
2CA
330
1F
100
AcDbEntity
  8
0
  6
Continuous
 62
     7
100
AcDbLine
 10
-61.75000000000003
 20
96.37705910214129
 30
0.0
 11
-61.65000000000012
 21
96.37705910214129
 31
0.0
  0
LINE
  5
2CB
330
1F
100
AcDbEntity
  8
0
  6
Continuous
 62
     7
100
AcDbLine
 10
-54.04999999999998
 20
96.37705910214129
 30
0.0
 11
-54.75000000000003
 21
96.37705910214129
 31
0.0
  0
LINE
  5
2CC
330
1F
100
AcDbEntity
  8
0
  6
Continuous
 62
     7
100
AcDbLine
 10
-61.65000000000012
 20
108.0770591021413
 30
0.0
 11
-61.75000000000003
 21
108.0770591021413
 31
0.0
  0
LINE
  5
2CD
330
1F
100
AcDbEntity
  8
0
  6
Continuous
 62
     7
100
AcDbLine
 10
-65.95000000000007
 20
108.0770591021413
 30
0.0
 11
-61.75000000000003
 21
108.0770591021413
 31
0.0
  0
LINE
  5
2CE
330
1F
100
AcDbEntity
  8
0
  6
Continuous
 62
     7
100
AcDbLine
 10
-61.65000000000012
 20
96.4770591021412
 30
0.0
 11
-61.65000000000012
 21
107.9770591021412
 31
0.0
  0
LINE
  5
2CF
330
1F
100
AcDbEntity
  8
0
  6
Continuous
 62
     7
100
AcDbLine
 10
-60.45000000000007
 20
102.4620591021411
 30
0.0
 11
-60.45000000000007
 21
103.0120591021413
 31
0.0
  0
LINE
  5
2D0
330
1F
100
AcDbEntity
  8
0
  6
Continuous
 62
     7
100
AcDbLine
 10
-60.45000000000007
 20
105.522059102141
 30
0.0
 11
-60.45000000000007
 21
106.0720591021412
 31
0.0
  0
LINE
  5
2D1
330
1F
100
AcDbEntity
  8
0
  6
Continuous
 62
     7
100
AcDbLine
 10
-60.45000000000007
 20
104.5020591021413
 30
0.0
 11
-60.45000000000007
 21
105.0520591021412
 31
0.0
  0
LINE
  5
2D2
330
1F
100
AcDbEntity
  8
0
  6
Continuous
 62
     7
100
AcDbLine
 10
-60.45000000000007
 20
103.4820591021413
 30
0.0
 11
-60.45000000000007
 21
104.0320591021413
 31
0.0
  0
LINE
  5
2D3
330
1F
100
AcDbEntity
  8
0
  6
Continuous
 62
     7
100
AcDbLine
 10
-54.04999999999998
 20
106.0720591021412
 30
0.0
 11
-54.75000000000003
 21
106.0720591021412
 31
0.0
  0
LINE
  5
2D4
330
1F
100
AcDbEntity
  8
0
  6
Continuous
 62
     7
100
AcDbLine
 10
-53.04999999999998
 20
105.2270591021412
 30
0.0
 11
-53.85000000000017
 21
105.2270591021412
 31
0.0
  0
LINE
  5
2D5
330
1F
100
AcDbEntity
  8
0
  6
Continuous
 62
     7
100
AcDbLine
 10
-54.04999999999998
 20
105.522059102141
 30
0.0
 11
-54.04999999999998
 21
106.0720591021412
 31
0.0
  0
LINE
  5
2D6
330
1F
100
AcDbEntity
  8
0
  6
Continuous
 62
     7
100
AcDbLine
 10
-54.04999999999998
 20
105.522059102141
 30
0.0
 11
-54.75000000000003
 21
105.522059102141
 31
0.0
  0
LINE
  5
2D7
330
1F
100
AcDbEntity
  8
0
  6
Continuous
 62
     7
100
AcDbLine
 10
-54.04999999999998
 20
103.4820591021413
 30
0.0
 11
-54.75000000000003
 21
103.4820591021413
 31
0.0
  0
LINE
  5
2D8
330
1F
100
AcDbEntity
  8
0
  6
Continuous
 62
     7
100
AcDbLine
 10
-54.04999999999998
 20
103.0120591021413
 30
0.0
 11
-54.75000000000003
 21
103.0120591021413
 31
0.0
  0
LINE
  5
2D9
330
1F
100
AcDbEntity
  8
0
  6
Continuous
 62
     7
100
AcDbLine
 10
-54.04999999999998
 20
105.0520591021412
 30
0.0
 11
-54.04999999999998
 21
105.522059102141
 31
0.0
  0
LINE
  5
2DA
330
1F
100
AcDbEntity
  8
0
  6
Continuous
 62
     7
100
AcDbLine
 10
-54.04999999999998
 20
105.0520591021412
 30
0.0
 11
-54.75000000000003
 21
105.0520591021412
 31
0.0
  0
LINE
  5
2DB
330
1F
100
AcDbEntity
  8
0
  6
Continuous
 62
     7
100
AcDbLine
 10
-54.04999999999998
 20
104.0320591021413
 30
0.0
 11
-54.75000000000003
 21
104.0320591021413
 31
0.0
  0
LINE
  5
2DC
330
1F
100
AcDbEntity
  8
0
  6
Continuous
 62
     7
100
AcDbLine
 10
-54.04999999999998
 20
104.5020591021413
 30
0.0
 11
-54.75000000000003
 21
104.5020591021413
 31
0.0
  0
LINE
  5
2DD
330
1F
100
AcDbEntity
  8
0
  6
Continuous
 62
     7
100
AcDbLine
 10
-54.04999999999998
 20
104.0320591021413
 30
0.0
 11
-54.04999999999998
 21
104.5020591021413
 31
0.0
  0
LINE
  5
2DE
330
1F
100
AcDbEntity
  8
0
  6
Continuous
 62
     7
100
AcDbLine
 10
-54.04999999999998
 20
103.4820591021413
 30
0.0
 11
-54.04999999999998
 21
104.0320591021413
 31
0.0
  0
LINE
  5
2DF
330
1F
100
AcDbEntity
  8
0
  6
Continuous
 62
     7
100
AcDbLine
 10
-54.04999999999998
 20
104.5020591021413
 30
0.0
 11
-54.04999999999998
 21
105.0520591021412
 31
0.0
  0
LINE
  5
2E0
330
1F
100
AcDbEntity
  8
0
  6
Continuous
 62
     7
100
AcDbLine
 10
-60.45000000000007
 20
102.4620591021411
 30
0.0
 11
-54.75000000000003
 21
102.4620591021411
 31
0.0
  0
LINE
  5
2E1
330
1F
100
AcDbEntity
  8
0
  6
Continuous
 62
     7
100
AcDbLine
 10
-54.75000000000003
 20
103.0120591021413
 30
0.0
 11
-60.45000000000007
 21
103.0120591021413
 31
0.0
  0
LINE
  5
2E2
330
1F
100
AcDbEntity
  8
0
  6
Continuous
 62
     7
100
AcDbLine
 10
-60.45000000000007
 20
103.4820591021413
 30
0.0
 11
-54.75000000000003
 21
103.4820591021413
 31
0.0
  0
LINE
  5
2E3
330
1F
100
AcDbEntity
  8
0
  6
Continuous
 62
     7
100
AcDbLine
 10
-54.75000000000003
 20
104.0320591021413
 30
0.0
 11
-60.45000000000007
 21
104.0320591021413
 31
0.0
  0
LINE
  5
2E4
330
1F
100
AcDbEntity
  8
0
  6
Continuous
 62
     7
100
AcDbLine
 10
-54.04999999999998
 20
102.4620591021411
 30
0.0
 11
-54.04999999999998
 21
103.0120591021413
 31
0.0
  0
LINE
  5
2E5
330
1F
100
AcDbEntity
  8
0
  6
Continuous
 62
     7
100
AcDbLine
 10
-54.04999999999998
 20
101.9920591021413
 30
0.0
 11
-54.04999999999998
 21
102.4620591021411
 31
0.0
  0
LINE
  5
2E6
330
1F
100
AcDbEntity
  8
0
  6
Continuous
 62
     7
100
AcDbLine
 10
-54.04999999999998
 20
102.4620591021411
 30
0.0
 11
-54.75000000000003
 21
102.4620591021411
 31
0.0
  0
LINE
  5
2E7
330
1F
100
AcDbEntity
  8
0
  6
Continuous
 62
     7
100
AcDbLine
 10
-54.75000000000003
 20
105.0520591021412
 30
0.0
 11
-60.45000000000007
 21
105.0520591021412
 31
0.0
  0
LINE
  5
2E8
330
1F
100
AcDbEntity
  8
0
  6
Continuous
 62
     7
100
AcDbLine
 10
-60.45000000000007
 20
104.5020591021413
 30
0.0
 11
-54.75000000000003
 21
104.5020591021413
 31
0.0
  0
LINE
  5
2E9
330
1F
100
AcDbEntity
  8
0
  6
Continuous
 62
     7
100
AcDbLine
 10
-54.04999999999998
 20
106.6770591021412
 30
0.0
 11
-53.85000000000017
 21
106.6770591021412
 31
0.0
  0
LINE
  5
2EA
330
1F
100
AcDbEntity
  8
0
  6
Continuous
 62
     7
100
AcDbLine
 10
-54.04999999999998
 20
103.0120591021413
 30
0.0
 11
-54.04999999999998
 21
103.4820591021413
 31
0.0
  0
LINE
  5
2EB
330
1F
100
AcDbEntity
  8
0
  6
Continuous
 62
     7
100
AcDbLine
 10
-54.75000000000003
 20
106.0720591021412
 30
0.0
 11
-60.45000000000007
 21
106.0720591021412
 31
0.0
  0
LINE
  5
2EC
330
1F
100
AcDbEntity
  8
0
  6
Continuous
 62
     7
100
AcDbLine
 10
-60.45000000000007
 20
105.522059102141
 30
0.0
 11
-54.75000000000003
 21
105.522059102141
 31
0.0
  0
LINE
  5
2ED
330
1F
100
AcDbEntity
  8
0
  6
Continuous
 62
     7
100
AcDbLine
 10
-53.85000000000017
 20
99.2270591021412
 30
0.0
 11
-53.04999999999998
 21
99.2270591021412
 31
0.0
  0
LINE
  5
2EE
330
1F
100
AcDbEntity
  8
0
  6
Continuous
 62
     7
100
AcDbLine
 10
-53.04999999999998
 20
99.2270591021412
 30
0.0
 11
-53.04999999999998
 21
105.2270591021412
 31
0.0
  0
LINE
  5
2EF
330
1F
100
AcDbEntity
  8
0
  6
Continuous
 62
     7
100
AcDbLine
 10
-64.33195047998473
 20
158.4270591021415
 30
0.0
 11
-65.95000000000007
 21
158.2299168059948
 31
0.0
  0
LINE
  5
2F0
330
1F
100
AcDbEntity
  8
0
  6
Continuous
 62
     7
100
AcDbLine
 10
-64.33195047998473
 20
158.4270591021415
 30
0.0
 11
-61.75000000000003
 21
158.4270591021415
 31
0.0
  0
LINE
  5
2F1
330
1F
100
AcDbEntity
  8
0
  6
Continuous
 62
     7
100
AcDbLine
 10
-61.75000000000003
 20
156.8270591021414
 30
0.0
 11
-61.75000000000003
 21
158.4270591021415
 31
0.0
  0
LINE
  5
2F2
330
1F
100
AcDbEntity
  8
0
  6
Continuous
 62
     7
100
AcDbLine
 10
-60.15000000000012
 20
156.7270591021415
 30
0.0
 11
-65.95000000000007
 21
156.7270591021415
 31
0.0
  0
LINE
  5
2F3
330
1F
100
AcDbEntity
  8
0
  6
Continuous
 62
     7
100
AcDbLine
 10
-61.75000000000003
 20
156.8270591021414
 30
0.0
 11
-60.0500000000001
 21
156.8270591021414
 31
0.0
  0
LINE
  5
2F4
330
1F
100
AcDbEntity
  8
0
  6
Continuous
 62
     7
100
AcDbLine
 10
-61.65000000000012
 20
158.7270591021415
 30
0.0
 11
-61.65000000000012
 21
159.8270591021414
 31
0.0
  0
LINE
  5
2F5
330
1F
100
AcDbEntity
  8
0
  6
Continuous
 62
     7
100
AcDbLine
 10
-65.95000000000007
 20
158.7270591021415
 30
0.0
 11
-61.75000000000003
 21
158.7270591021415
 31
0.0
  0
LINE
  5
2F6
330
1F
100
AcDbEntity
  8
0
  6
Continuous
 62
     7
100
AcDbLine
 10
-60.15000000000012
 20
156.7270591021415
 30
0.0
 11
-60.0500000000001
 21
156.8270591021414
 31
0.0
  0
LINE
  5
2F7
330
1F
100
AcDbEntity
  8
0
  6
Continuous
 62
     7
100
AcDbLine
 10
-61.65000000000012
 20
159.8270591021414
 30
0.0
 11
-59.35000000000017
 21
159.8270591021414
 31
0.0
  0
LINE
  5
2F8
330
1F
100
AcDbEntity
  8
0
  6
Continuous
 62
     7
100
AcDbLine
 10
-59.35000000000017
 20
159.8270591021414
 30
0.0
 11
-59.35000000000017
 21
164.5270591021414
 31
0.0
  0
LINE
  5
2F9
330
1F
100
AcDbEntity
  8
0
  6
Continuous
 62
     7
100
AcDbLine
 10
-60.0500000000001
 20
156.8270591021414
 30
0.0
 11
-59.35000000000017
 21
157.5270591021414
 31
0.0
  0
LINE
  5
2FA
330
1F
100
AcDbEntity
  8
0
  6
Continuous
 62
     7
100
AcDbLine
 10
-56.45000000000007
 20
158.4270591021415
 30
0.0
 11
-56.45000000000007
 21
158.7270591021415
 31
0.0
  0
LINE
  5
2FB
330
1F
100
AcDbEntity
  8
0
  6
Continuous
 62
     7
100
AcDbLine
 10
-56.45000000000007
 20
158.4270591021415
 30
0.0
 11
-61.75000000000003
 21
158.4270591021415
 31
0.0
  0
LINE
  5
2FC
330
1F
100
AcDbEntity
  8
0
  6
Continuous
 62
     7
100
AcDbLine
 10
-61.65000000000012
 20
158.7270591021415
 30
0.0
 11
-55.54999999999998
 21
158.7270591021415
 31
0.0
  0
LINE
  5
2FD
330
1F
100
AcDbEntity
  8
0
  6
Continuous
 62
     7
100
AcDbLine
 10
-53.04999999999998
 20
158.2270591021415
 30
0.0
 11
-53.04999999999998
 21
160.1270591021416
 31
0.0
  0
LINE
  5
2FE
330
1F
100
AcDbEntity
  8
0
  6
Continuous
 62
     7
100
AcDbLine
 10
-55.04999999999998
 20
159.2270591021415
 30
0.0
 11
-55.04999999999998
 21
160.1270591021416
 31
0.0
  0
LINE
  5
2FF
330
1F
100
AcDbEntity
  8
0
  6
Continuous
 62
     7
100
AcDbLine
 10
-59.35000000000017
 20
157.5270591021414
 30
0.0
 11
-53.75000000000003
 21
157.5270591021414
 31
0.0
  0
LINE
  5
300
330
1F
100
AcDbEntity
  8
0
  6
Continuous
 62
     7
100
AcDbLine
 10
-59.35000000000017
 20
164.5270591021414
 30
0.0
 11
-61.65000000000012
 21
164.5270591021414
 31
0.0
  0
LINE
  5
301
330
1F
100
AcDbEntity
  8
0
  6
Continuous
 62
     7
100
AcDbLine
 10
-61.65000000000012
 20
165.3270591021414
 30
0.0
 11
-54.75000000000003
 21
165.3270591021414
 31
0.0
  0
LINE
  5
302
330
1F
100
AcDbEntity
  8
0
  6
Continuous
 62
     7
100
AcDbLine
 10
-65.95000000000007
 20
165.3270591021414
 30
0.0
 11
-61.75000000000003
 21
165.3270591021414
 31
0.0
  0
LINE
  5
303
330
1F
100
AcDbEntity
  8
0
  6
Continuous
 62
     7
100
AcDbLine
 10
-61.65000000000012
 20
164.5270591021414
 30
0.0
 11
-61.65000000000012
 21
165.3270591021414
 31
0.0
  0
LINE
  5
304
330
1F
100
AcDbEntity
  8
0
  6
Continuous
 62
     7
100
AcDbLine
 10
-53.85000000000017
 20
161.5270591021414
 30
0.0
 11
-54.04999999999998
 21
161.7270591021415
 31
0.0
  0
LINE
  5
305
330
1F
100
AcDbEntity
  8
0
  6
Continuous
 62
     7
100
AcDbLine
 10
-54.04999999999998
 20
160.1270591021416
 30
0.0
 11
-54.04999999999998
 21
161.7270591021415
 31
0.0
  0
LINE
  5
306
330
1F
100
AcDbEntity
  8
0
  6
Continuous
 62
     7
100
AcDbLine
 10
-53.85000000000017
 20
160.1270591021416
 30
0.0
 11
-53.04999999999998
 21
160.1270591021416
 31
0.0
  0
LINE
  5
307
330
1F
100
AcDbEntity
  8
0
  6
Continuous
 62
     7
100
AcDbLine
 10
-54.04999999999998
 20
161.7270591021415
 30
0.0
 11
-54.04999999999998
 21
164.6270591021416
 31
0.0
  0
LINE
  5
308
330
1F
100
AcDbEntity
  8
0
  6
Continuous
 62
     7
100
AcDbLine
 10
-53.85000000000017
 20
161.5270591021414
 30
0.0
 11
-53.85000000000017
 21
160.1270591021416
 31
0.0
  0
LINE
  5
309
330
1F
100
AcDbEntity
  8
0
  6
Continuous
 62
     7
100
AcDbLine
 10
-53.85000000000017
 20
160.1270591021416
 30
0.0
 11
-54.04999999999998
 21
160.1270591021416
 31
0.0
  0
LINE
  5
30A
330
1F
100
AcDbEntity
  8
0
  6
Continuous
 62
     7
100
AcDbLine
 10
-54.04999999999998
 20
160.1270591021416
 30
0.0
 11
-55.04999999999998
 21
160.1270591021416
 31
0.0
  0
LINE
  5
30B
330
1F
100
AcDbEntity
  8
0
  6
Continuous
 62
     2
100
AcDbLine
 10
-86.09998702534332
 20
102.1404640526843
 30
0.0
 11
-86.98914059348343
 21
101.6271110007673
 31
0.0
  0
LINE
  5
30C
330
1F
100
AcDbEntity
  8
0
  6
Continuous
 62
     2
100
AcDbLine
 10
-86.98914059348343
 20
102.8270072035147
 30
0.0
 11
-86.09998702534332
 21
102.3136541515977
 31
0.0
  0
LINE
  5
30D
330
1F
100
AcDbEntity
  8
0
  6
Continuous
 62
     2
100
AcDbLine
 10
-88.94974050686776
 20
102.2270591021412
 30
0.0
 11
-86.03661106629781
 21
107.2764834657954
 31
0.0
  0
LINE
  5
30E
330
1F
100
AcDbEntity
  8
0
  6
Continuous
 62
     2
100
AcDbLine
 10
-86.03661106629781
 20
97.17763473848652
 30
0.0
 11
-88.94974050686776
 21
102.2270591021412
 31
0.0
  0
LINE
  5
30F
330
1F
100
AcDbEntity
  8
0
  6
Continuous
 62
     2
100
AcDbLine
 10
-82.95025949313234
 20
102.2270591021414
 30
0.0
 11
-85.86338893370223
 21
97.17763473848652
 31
0.0
  0
LINE
  5
310
330
1F
100
AcDbEntity
  8
0
  6
Continuous
 62
     2
100
AcDbLine
 10
-85.86338893370223
 20
107.2764834657954
 30
0.0
 11
-82.95025949313234
 21
102.2270591021414
 31
0.0
  0
LINE
  5
311
330
1F
100
AcDbEntity
  8
0
  6
Continuous
 62
     2
100
AcDbLine
 10
-86.74993080183143
 20
102.2270591021412
 30
0.0
 11
-87.96804567953185
 21
102.9303380546854
 31
0.0
  0
LINE
  5
312
330
1F
100
AcDbEntity
  8
0
  6
Continuous
 62
     2
100
AcDbLine
 10
-84.95863680164481
 20
103.2269726044304
 30
0.0
 11
-87.88856269148053
 21
103.2269726044304
 31
0.0
  0
LINE
  5
313
330
1F
100
AcDbEntity
  8
0
  6
Continuous
 62
     2
100
AcDbLine
 10
-86.98914059348343
 20
102.8270072035147
 30
0.0
 11
-84.95863680164481
 21
102.8270072035147
 31
0.0
  0
LINE
  5
314
330
1F
100
AcDbEntity
  8
0
  6
Continuous
 62
     2
100
AcDbLine
 10
-84.03512708881223
 20
101.6271110007673
 30
0.0
 11
-86.98914059348343
 21
101.6271110007673
 31
0.0
  0
LINE
  5
315
330
1F
100
AcDbEntity
  8
0
  6
Continuous
 62
     2
100
AcDbLine
 10
-87.88856269148053
 20
101.2271455998515
 30
0.0
 11
-84.03512708881223
 21
101.2271455998515
 31
0.0
  0
LINE
  5
316
330
1F
100
AcDbEntity
  8
0
  6
Continuous
 62
     2
100
AcDbLine
 10
-86.74993080183143
 20
102.2270591021412
 30
0.0
 11
-87.96804567953185
 21
101.523780149597
 31
0.0
  0
LINE
  5
317
330
1F
100
AcDbEntity
  8
0
  6
Continuous
 62
     2
100
AcDbLine
 10
-87.40337437166951
 20
104.026903406262
 30
0.0
 11
-84.61212842165904
 21
104.026903406262
 31
0.0
  0
LINE
  5
318
330
1F
100
AcDbEntity
  8
0
  6
Continuous
 62
     2
100
AcDbLine
 10
-84.61212842165904
 20
103.6269380053462
 30
0.0
 11
-87.40337437166963
 21
103.626938005346
 31
0.0
  0
LINE
  5
319
330
1F
100
AcDbEntity
  8
0
  6
Continuous
 62
     2
100
AcDbLine
 10
-83.86222531676933
 20
102.3271059568705
 30
0.0
 11
-84.61212842165904
 21
103.6269380053462
 31
0.0
  0
LINE
  5
31A
330
1F
100
AcDbEntity
  8
0
  6
Continuous
 62
     2
100
AcDbLine
 10
-84.26568415646764
 20
103.826809696803
 30
0.0
 11
-83.51578105157793
 21
102.5269776483273
 31
0.0
  0
LINE
  5
31B
330
1F
100
AcDbEntity
  8
0
  6
Continuous
 62
     2
100
AcDbLine
 10
-84.95812416784864
 20
104.4268688071778
 30
0.0
 11
-86.94187583215151
 21
104.4268688071778
 31
0.0
  0
LINE
  5
31C
330
1F
100
AcDbEntity
  8
0
  6
Continuous
 62
     2
100
AcDbLine
 10
-86.94187583215145
 20
104.8268342080934
 30
0.0
 11
-84.95812416784864
 21
104.8268342080936
 31
0.0
  0
LINE
  5
31D
330
1F
100
AcDbEntity
  8
0
  6
Continuous
 62
     2
100
AcDbLine
 10
-87.11509796474715
 20
99.72733085091829
 30
0.0
 11
-87.57659650426532
 21
100.5272616527499
 31
0.0
  0
LINE
  5
31E
330
1F
100
AcDbEntity
  8
0
  6
Continuous
 62
     2
100
AcDbLine
 10
-87.05712230858191
 20
100.4272147980208
 30
0.0
 11
-86.76865369955593
 21
99.92720254237508
 31
0.0
  0
LINE
  5
31F
330
1F
100
AcDbEntity
  8
0
  6
Continuous
 62
     2
100
AcDbLine
 10
-86.14998270045774
 20
100.4272147980208
 30
0.0
 11
-87.05712230858191
 21
100.4272147980208
 31
0.0
  0
LINE
  5
320
330
1F
100
AcDbEntity
  8
0
  6
Continuous
 62
     2
100
AcDbLine
 10
-86.14998270045774
 20
99.82726669664669
 30
0.0
 11
-86.14998270045774
 21
100.4272147980208
 31
0.0
  0
LINE
  5
321
330
1F
100
AcDbEntity
  8
0
  6
Continuous
 62
     2
100
AcDbLine
 10
-85.75001729954212
 20
100.4272147980208
 30
0.0
 11
-85.75001729954212
 21
99.82726669664669
 31
0.0
  0
LINE
  5
322
330
1F
100
AcDbEntity
  8
0
  6
Continuous
 62
     2
100
AcDbLine
 10
-84.84287769141812
 20
100.4272147980208
 30
0.0
 11
-85.75001729954212
 21
100.4272147980208
 31
0.0
  0
LINE
  5
323
330
1F
100
AcDbEntity
  8
0
  6
Continuous
 62
     2
100
AcDbLine
 10
-85.13134630044422
 20
99.92720254237508
 30
0.0
 11
-84.84287769141812
 21
100.4272147980208
 31
0.0
  0
LINE
  5
324
330
1F
100
AcDbEntity
  8
0
  6
Continuous
 62
     2
100
AcDbLine
 10
-84.32340349573471
 20
100.5272616527499
 30
0.0
 11
-84.78490203525283
 21
99.72733085091829
 31
0.0
  0
LINE
  5
325
330
1F
100
AcDbEntity
  8
0
  6
Continuous
 62
     2
100
AcDbLine
 10
-87.40337437166951
 20
100.8271801989362
 30
0.0
 11
-84.49662562833035
 21
100.8271801989362
 31
0.0
  0
LINE
  5
326
330
1F
100
AcDbEntity
  8
1
  6
Continuous
 62
     7
100
AcDbLine
 10
-120.9500000000001
 20
164.3779120632273
 30
0.0
 11
-125.9500000000001
 21
164.3779120632273
 31
0.0
  0
LINE
  5
327
330
1F
100
AcDbEntity
  8
1
  6
Continuous
 62
     7
100
AcDbLine
 10
-120.95
 20
151.6762061410554
 30
0.0
 11
-125.9500000000001
 21
151.6762061410554
 31
0.0
  0
LINE
  5
328
330
1F
100
AcDbEntity
  8
1
  6
Continuous
 62
     7
100
AcDbLine
 10
-140.3500000000001
 20
169.0270591021414
 30
0.0
 11
-138.3500000000001
 21
170.5270591021414
 31
0.0
  0
LINE
  5
329
330
1F
100
AcDbEntity
  8
1
  6
Continuous
 62
     7
100
AcDbLine
 10
-138.3500000000001
 20
145.5270591021414
 30
0.0
 11
-140.3500000000001
 21
147.0270591021414
 31
0.0
  0
LINE
  5
32A
330
1F
100
AcDbEntity
  8
1
  6
Continuous
 62
     7
100
AcDbLine
 10
-140.3500000000001
 20
147.0270591021414
 30
0.0
 11
-140.3500000000001
 21
147.6347542567282
 31
0.0
  0
LINE
  5
32B
330
1F
100
AcDbEntity
  8
1
  6
Continuous
 62
     7
100
AcDbLine
 10
-128.3500000000001
 20
164.3779120632273
 30
0.0
 11
-138.3500000000001
 21
164.3779120632273
 31
0.0
  0
LINE
  5
32C
330
1F
100
AcDbEntity
  8
1
  6
Continuous
 62
     7
100
AcDbLine
 10
-120.9500000000001
 20
145.5270591021414
 30
0.0
 11
-120.9500000000001
 21
147.4419942679057
 31
0.0
  0
LINE
  5
32D
330
1F
100
AcDbEntity
  8
1
  6
Continuous
 62
     7
100
AcDbLine
 10
-120.95
 20
170.5270591021414
 30
0.0
 11
-120.9500000000001
 21
168.6121239363767
 31
0.0
  0
LINE
  5
32E
330
1F
100
AcDbEntity
  8
1
  6
Continuous
 62
     7
100
AcDbLine
 10
-120.9500000000001
 20
145.5270591021414
 30
0.0
 11
-125.9500000000001
 21
145.5270591021414
 31
0.0
  0
LINE
  5
32F
330
1F
100
AcDbEntity
  8
1
  6
Continuous
 62
     7
100
AcDbLine
 10
-120.95
 20
170.5270591021414
 30
0.0
 11
-125.9500000000001
 21
170.5270591021414
 31
0.0
  0
LINE
  5
330
330
1F
100
AcDbEntity
  8
1
  6
Continuous
 62
     7
100
AcDbLine
 10
-125.9500000000001
 20
145.5270591021414
 30
0.0
 11
-125.9500000000001
 21
170.5270591021414
 31
0.0
  0
LINE
  5
331
330
1F
100
AcDbEntity
  8
1
  6
Continuous
 62
     7
100
AcDbLine
 10
-128.3500000000001
 20
151.6762061410554
 30
0.0
 11
-138.3500000000001
 21
151.6762061410554
 31
0.0
  0
LINE
  5
332
330
1F
100
AcDbEntity
  8
1
  6
Continuous
 62
     7
100
AcDbLine
 10
-128.3500000000001
 20
145.5270591021414
 30
0.0
 11
-128.3500000000001
 21
170.5270591021414
 31
0.0
  0
LINE
  5
333
330
1F
100
AcDbEntity
  8
1
  6
Continuous
 62
     7
100
AcDbLine
 10
-125.9500000000001
 20
166.0270591021414
 30
0.0
 11
-128.3500000000001
 21
166.0270591021414
 31
0.0
  0
LINE
  5
334
330
1F
100
AcDbEntity
  8
1
  6
Continuous
 62
     7
100
AcDbLine
 10
-125.9500000000001
 20
150.0270591021414
 30
0.0
 11
-128.3500000000001
 21
150.0270591021414
 31
0.0
  0
LINE
  5
335
330
1F
100
AcDbEntity
  8
1
  6
Continuous
 62
     7
100
AcDbLine
 10
-140.3500000000001
 20
147.6347542567282
 30
0.0
 11
-140.3500000000001
 21
169.0270591021414
 31
0.0
  0
LINE
  5
336
330
1F
100
AcDbEntity
  8
1
  6
Continuous
 62
     7
100
AcDbLine
 10
-128.3500000000001
 20
145.5270591021414
 30
0.0
 11
-138.3500000000001
 21
145.5270591021414
 31
0.0
  0
LINE
  5
337
330
1F
100
AcDbEntity
  8
1
  6
Continuous
 62
     7
100
AcDbLine
 10
-128.3500000000001
 20
170.5270591021414
 30
0.0
 11
-138.3500000000001
 21
170.5270591021414
 31
0.0
  0
LINE
  5
338
330
1F
100
AcDbEntity
  8
1
  6
Continuous
 62
     7
100
AcDbLine
 10
-141.8500000000001
 20
169.0270591021414
 30
0.0
 11
-140.3500000000001
 21
169.0270591021414
 31
0.0
  0
LINE
  5
339
330
1F
100
AcDbEntity
  8
1
  6
Continuous
 62
     7
100
AcDbLine
 10
-145.3500000000001
 20
150.5270591021414
 30
0.0
 11
-145.3500000000001
 21
165.5270591021414
 31
0.0
  0
LINE
  5
33A
330
1F
100
AcDbEntity
  8
1
  6
Continuous
 62
     7
100
AcDbLine
 10
-140.3500000000001
 20
147.0270591021414
 30
0.0
 11
-141.8500000000001
 21
147.0270591021414
 31
0.0
  0
LINE
  5
33B
330
1F
100
AcDbEntity
  8
1
  6
Continuous
 62
     7
100
AcDbLine
 10
-118.4968605361368
 20
90.89199426790572
 30
0.0
 11
-78.45000000000002
 21
90.4770591021412
 31
0.0
  0
LINE
  5
33C
330
1F
100
AcDbEntity
  8
1
  6
Continuous
 62
     7
100
AcDbLine
 10
-75.70000000000013
 20
159.5270591021412
 30
0.0
 11
-75.70000000000013
 21
156.5270591021412
 31
0.0
  0
LINE
  5
33D
330
1F
100
AcDbEntity
  8
1
  6
Continuous
 62
     7
100
AcDbLine
 10
-77.07499999997012
 20
159.5270591021412
 30
0.0
 11
-69.45000000000013
 21
159.5270591021412
 31
0.0
  0
LINE
  5
33E
330
1F
100
AcDbEntity
  8
1
  6
Continuous
 62
     7
100
AcDbLine
 10
-76.94728132327046
 20
156.5270591021412
 30
0.0
 11
-69.45000000000013
 21
156.5270591021412
 31
0.0
  0
LINE
  5
33F
330
1F
100
AcDbEntity
  8
1
  6
Continuous
 62
     7
100
AcDbLine
 10
-75.65000000000006
 20
85.72705910214142
 30
0.0
 11
-78.45000000000002
 21
85.72705910214142
 31
0.0
  0
LINE
  5
340
330
1F
100
AcDbEntity
  8
1
  6
Continuous
 62
     7
100
AcDbLine
 10
-78.45000000000002
 20
85.72705910214142
 30
0.0
 11
-78.45000000000002
 21
84.72705910214142
 31
0.0
  0
LINE
  5
341
330
1F
100
AcDbEntity
  8
1
  6
Continuous
 62
     7
100
AcDbLine
 10
-78.45000000000002
 20
84.72705910214142
 30
0.0
 11
-75.69999999999996
 21
84.72705910214142
 31
0.0
  0
LINE
  5
342
330
1F
100
AcDbEntity
  8
1
  6
Continuous
 62
     7
100
AcDbLine
 10
-75.65000000000006
 20
118.7270591021412
 30
0.0
 11
-78.45000000000002
 21
118.7270591021412
 31
0.0
  0
LINE
  5
343
330
1F
100
AcDbEntity
  8
1
  6
Continuous
 62
     7
100
AcDbLine
 10
-75.70000000000013
 20
119.7270591021412
 30
0.0
 11
-78.45000000000002
 21
119.7270591021412
 31
0.0
  0
LINE
  5
344
330
1F
100
AcDbEntity
  8
1
  6
Continuous
 62
     7
100
AcDbLine
 10
-78.45000000000002
 20
119.7270591021412
 30
0.0
 11
-78.45000000000002
 21
118.7270591021412
 31
0.0
  0
LINE
  5
345
330
1F
100
AcDbEntity
  8
1
  6
Continuous
 62
     7
100
AcDbLine
 10
-120.9500000000001
 20
112.8121239363767
 30
0.0
 11
-120.9500000000001
 21
91.64199426790572
 31
0.0
  0
LINE
  5
346
330
1F
100
AcDbEntity
  8
1
  6
Continuous
 62
     7
100
AcDbLine
 10
-65.94999999999985
 20
115.4770591021412
 30
0.0
 11
-65.95000000000007
 21
88.97705910214142
 31
0.0
  0
LINE
  5
347
330
1F
100
AcDbEntity
  8
1
  6
Continuous
 62
     7
100
AcDbLine
 10
-70.95000000000013
 20
90.4770591021412
 30
0.0
 11
-69.45000000000013
 21
88.97705910214142
 31
0.0
  0
LINE
  5
348
330
1F
100
AcDbEntity
  8
1
  6
Continuous
 62
     7
100
AcDbLine
 10
-69.45000000000013
 20
115.4770591021412
 30
0.0
 11
-70.95000000000013
 21
113.9770591021412
 31
0.0
  0
LINE
  5
349
330
1F
100
AcDbEntity
  8
1
  6
Continuous
 62
     7
100
AcDbLine
 10
-75.69999999999996
 20
84.72705910214142
 30
0.0
 11
-71.45000000000013
 21
88.97705910214142
 31
0.0
  0
LINE
  5
34A
330
1F
100
AcDbEntity
  8
1
  6
Continuous
 62
     7
100
AcDbLine
 10
-75.70000000000013
 20
119.7270591021412
 30
0.0
 11
-71.45000000000013
 21
115.4770591021412
 31
0.0
  0
LINE
  5
34B
330
1F
100
AcDbEntity
  8
1
  6
Continuous
 62
     7
100
AcDbLine
 10
-76.95000000000002
 20
88.97705910214142
 30
0.0
 11
-76.95000000000002
 21
85.72705910214142
 31
0.0
  0
LINE
  5
34C
330
1F
100
AcDbEntity
  8
1
  6
Continuous
 62
     7
100
AcDbLine
 10
-76.95000000000002
 20
115.4770591021412
 30
0.0
 11
-76.95000000000002
 21
118.7270591021412
 31
0.0
  0
LINE
  5
34D
330
1F
100
AcDbEntity
  8
1
  6
Continuous
 62
     7
100
AcDbLine
 10
-65.95000000000007
 20
88.97705910214142
 30
0.0
 11
-76.95000000000002
 21
88.97705910214142
 31
0.0
  0
LINE
  5
34E
330
1F
100
AcDbEntity
  8
1
  6
Continuous
 62
     7
100
AcDbLine
 10
-78.45000000000002
 20
90.4770591021412
 30
0.0
 11
-76.95000000000002
 21
88.97705910214142
 31
0.0
  0
LINE
  5
34F
330
1F
100
AcDbEntity
  8
1
  6
Continuous
 62
     7
100
AcDbLine
 10
-78.45000000000002
 20
113.9770591021412
 30
0.0
 11
-76.95000000000002
 21
115.4770591021412
 31
0.0
  0
LINE
  5
350
330
1F
100
AcDbEntity
  8
1
  6
Continuous
 62
     7
100
AcDbLine
 10
-69.45000000000013
 20
115.4770591021412
 30
0.0
 11
-69.45000000000013
 21
88.97705910214142
 31
0.0
  0
LINE
  5
351
330
1F
100
AcDbEntity
  8
1
  6
Continuous
 62
     7
100
AcDbLine
 10
-118.4968605361368
 20
90.89199426790572
 30
0.0
 11
-120.9500000000001
 21
91.64199426790572
 31
0.0
  0
LINE
  5
352
330
1F
100
AcDbEntity
  8
1
  6
Continuous
 62
     7
100
AcDbLine
 10
-118.4968605361368
 20
113.5621239363767
 30
0.0
 11
-120.9500000000001
 21
112.8121239363767
 31
0.0
  0
LINE
  5
353
330
1F
100
AcDbEntity
  8
1
  6
Continuous
 62
     7
100
AcDbLine
 10
-118.4968605361368
 20
113.5621239363767
 30
0.0
 11
-70.95000000000013
 21
113.9770591021412
 31
0.0
  0
LINE
  5
354
330
1F
100
AcDbEntity
  8
1
  6
Continuous
 62
     7
100
AcDbLine
 10
-70.95000000000013
 20
112.3358424117192
 30
0.0
 11
-70.95000000000013
 21
92.1182757925634
 31
0.0
  0
LINE
  5
355
330
1F
100
AcDbEntity
  8
1
  6
Continuous
 62
     7
100
AcDbLine
 10
-78.45000000000002
 20
90.4770591021412
 30
0.0
 11
-70.95000000000013
 21
90.4770591021412
 31
0.0
  0
LINE
  5
356
330
1F
100
AcDbEntity
  8
1
  6
Continuous
 62
     7
100
AcDbLine
 10
-120.9500000000001
 20
168.6121239363767
 30
0.0
 11
-120.9500000000001
 21
147.4419942679057
 31
0.0
  0
LINE
  5
357
330
1F
100
AcDbEntity
  8
1
  6
Continuous
 62
     7
100
AcDbLine
 10
-65.95000000000007
 20
171.2770591021412
 30
0.0
 11
-65.95000000000007
 21
144.7770591021412
 31
0.0
  0
LINE
  5
358
330
1F
100
AcDbEntity
  8
1
  6
Continuous
 62
     7
100
AcDbLine
 10
-70.95000000000013
 20
146.2770591021412
 30
0.0
 11
-69.45000000000013
 21
144.7770591021412
 31
0.0
  0
LINE
  5
359
330
1F
100
AcDbEntity
  8
1
  6
Continuous
 62
     7
100
AcDbLine
 10
-69.45000000000013
 20
171.2770591021412
 30
0.0
 11
-70.95000000000013
 21
169.7770591021412
 31
0.0
  0
LINE
  5
35A
330
1F
100
AcDbEntity
  8
1
  6
Continuous
 62
     7
100
AcDbLine
 10
-69.45000000000013
 20
156.5270591021412
 30
0.0
 11
-69.45000000000013
 21
144.7770591021412
 31
0.0
  0
LINE
  5
35B
330
1F
100
AcDbEntity
  8
1
  6
Continuous
 62
     7
100
AcDbLine
 10
-118.4968605361368
 20
146.6919942679057
 30
0.0
 11
-120.9500000000001
 21
147.4419942679057
 31
0.0
  0
LINE
  5
35C
330
1F
100
AcDbEntity
  8
1
  6
Continuous
 62
     7
100
AcDbLine
 10
-118.4968605361368
 20
169.3621239363767
 30
0.0
 11
-120.9500000000001
 21
168.6121239363767
 31
0.0
  0
LINE
  5
35D
330
1F
100
AcDbEntity
  8
1
  6
Continuous
 62
     7
100
AcDbLine
 10
-118.4968605361368
 20
169.3621239363767
 30
0.0
 11
-70.95000000000013
 21
169.7770591021412
 31
0.0
  0
LINE
  5
35E
330
1F
100
AcDbEntity
  8
1
  6
Continuous
 62
     7
100
AcDbLine
 10
-70.95000000000013
 20
155.0270591021412
 30
0.0
 11
-70.95000000000013
 21
147.9182757925634
 31
0.0
  0
LINE
  5
35F
330
1F
100
AcDbEntity
  8
1
  6
Continuous
 62
     7
100
AcDbLine
 10
-118.4968605361368
 20
146.6919942679057
 30
0.0
 11
-70.95000000000013
 21
146.2770591021412
 31
0.0
  0
LINE
  5
360
330
1F
100
AcDbEntity
  8
1
  6
Continuous
 62
     7
100
AcDbLine
 10
-65.95000000000007
 20
144.7770591021412
 30
0.0
 11
-69.45000000000013
 21
144.7770591021412
 31
0.0
  0
LINE
  5
361
330
1F
100
AcDbEntity
  8
1
  6
Continuous
 62
     7
100
AcDbLine
 10
-65.95000000000007
 20
171.2770591021412
 30
0.0
 11
-69.45000000000013
 21
171.2770591021412
 31
0.0
  0
LINE
  5
362
330
1F
100
AcDbEntity
  8
1
  6
Continuous
 62
     7
100
AcDbLine
 10
-71.45000000000013
 20
159.5270591021412
 30
0.0
 11
-71.45000000000013
 21
156.5270591021412
 31
0.0
  0
LINE
  5
363
330
1F
100
AcDbEntity
  8
1
  6
Continuous
 62
     7
100
AcDbLine
 10
-69.45000000000013
 20
171.2770591021412
 30
0.0
 11
-69.45000000000013
 21
159.5270591021412
 31
0.0
  0
LINE
  5
364
330
1F
100
AcDbEntity
  8
1
  6
Continuous
 62
     7
100
AcDbLine
 10
-69.45000000000013
 20
156.5270591021412
 30
0.0
 11
-70.95000000000013
 21
155.0270591021412
 31
0.0
  0
LINE
  5
365
330
1F
100
AcDbEntity
  8
1
  6
Continuous
 62
     7
100
AcDbLine
 10
-70.95000000000013
 20
161.0270591021412
 30
0.0
 11
-69.45000000000013
 21
159.5270591021412
 31
0.0
  0
LINE
  5
366
330
1F
100
AcDbEntity
  8
1
  6
Continuous
 62
     7
100
AcDbLine
 10
-70.95000000000013
 20
168.1358424117192
 30
0.0
 11
-70.95000000000013
 21
161.0270591021412
 31
0.0
  0
LINE
  5
367
330
1F
100
AcDbEntity
  8
1
  6
Continuous
 62
     7
100
AcDbLine
 10
-75.45000000000002
 20
155.0270591021412
 30
0.0
 11
-70.95000000000013
 21
155.0270591021412
 31
0.0
  0
LINE
  5
368
330
1F
100
AcDbEntity
  8
1
  6
Continuous
 62
     7
100
AcDbLine
 10
-75.45000000000002
 20
161.0270591021412
 30
0.0
 11
-70.95000000000013
 21
161.0270591021412
 31
0.0
  0
LINE
  5
369
330
1F
100
AcDbEntity
  8
1
  6
Continuous
 62
     2
100
AcDbLine
 10
-70.84999999999988
 20
169.7770591021412
 30
0.0
 11
-70.95000000000013
 21
169.7770591021412
 31
0.0
  0
LINE
  5
36A
330
1F
100
AcDbEntity
  8
1
  6
Continuous
 62
     7
100
AcDbLine
 10
-65.94999999999985
 20
115.4770591021412
 30
0.0
 11
-76.95000000000002
 21
115.4770591021412
 31
0.0
  0
LINE
  5
36B
330
1F
100
AcDbEntity
  8
1
  6
Continuous
 62
     2
100
AcDbLine
 10
-71.15000000000006
 20
146.2770591021412
 30
0.0
 11
-70.95000000000013
 21
146.2770591021412
 31
0.0
  0
LINE
  5
36C
330
1F
100
AcDbEntity
  8
1
  6
Continuous
 62
     7
100
AcDbLine
 10
-145.3500000000001
 20
94.7270591021412
 30
0.0
 11
-145.3500000000001
 21
109.7270591021412
 31
0.0
  0
LINE
  5
36D
330
1F
100
AcDbEntity
  8
1
  6
Continuous
 62
     7
100
AcDbLine
 10
-128.3500000000001
 20
113.2270591021412
 30
0.0
 11
-141.8500000000001
 21
113.2270591021412
 31
0.0
  0
LINE
  5
36E
330
1F
100
AcDbEntity
  8
1
  6
Continuous
 62
     7
100
AcDbLine
 10
-128.3500000000001
 20
91.2270591021412
 30
0.0
 11
-141.8500000000001
 21
91.2270591021412
 31
0.0
  0
LINE
  5
36F
330
1F
100
AcDbEntity
  8
1
  6
Continuous
 62
     7
100
AcDbLine
 10
-140.3500000000001
 20
91.22705910214142
 30
0.0
 11
-140.3500000000001
 21
113.2270591021412
 31
0.0
  0
LINE
  5
370
330
1F
100
AcDbEntity
  8
1
  6
Continuous
 62
     7
100
AcDbLine
 10
-125.9500000000001
 20
94.2270591021412
 30
0.0
 11
-128.3500000000001
 21
94.2270591021412
 31
0.0
  0
LINE
  5
371
330
1F
100
AcDbEntity
  8
1
  6
Continuous
 62
     7
100
AcDbLine
 10
-125.9500000000001
 20
110.2270591021412
 30
0.0
 11
-128.3500000000001
 21
110.2270591021412
 31
0.0
  0
LINE
  5
372
330
1F
100
AcDbEntity
  8
1
  6
Continuous
 62
     7
100
AcDbLine
 10
-128.3500000000001
 20
91.2270591021412
 30
0.0
 11
-128.3500000000001
 21
113.2270591021412
 31
0.0
  0
LINE
  5
373
330
1F
100
AcDbEntity
  8
1
  6
Continuous
 62
     7
100
AcDbLine
 10
-128.3500000000001
 20
102.2270591021412
 30
0.0
 11
-138.3500000000001
 21
102.2270591021412
 31
0.0
  0
LINE
  5
374
330
1F
100
AcDbEntity
  8
1
  6
Continuous
 62
     7
100
AcDbLine
 10
-120.9500000000001
 20
102.2270591021412
 30
0.0
 11
-125.9500000000001
 21
102.2270591021412
 31
0.0
  0
LINE
  5
375
330
1F
100
AcDbEntity
  8
1
  6
Continuous
 62
     7
100
AcDbLine
 10
-120.9500000000001
 20
91.2270591021412
 30
0.0
 11
-125.9500000000001
 21
91.2270591021412
 31
0.0
  0
LINE
  5
376
330
1F
100
AcDbEntity
  8
1
  6
Continuous
 62
     7
100
AcDbLine
 10
-120.9500000000001
 20
113.2270591021412
 30
0.0
 11
-125.9500000000001
 21
113.2270591021412
 31
0.0
  0
LINE
  5
377
330
1F
100
AcDbEntity
  8
1
  6
Continuous
 62
     7
100
AcDbLine
 10
-120.9500000000001
 20
91.2270591021412
 30
0.0
 11
-120.9500000000001
 21
91.64199426790572
 31
0.0
  0
LINE
  5
378
330
1F
100
AcDbEntity
  8
1
  6
Continuous
 62
     7
100
AcDbLine
 10
-120.9500000000001
 20
113.2270591021412
 30
0.0
 11
-120.9500000000001
 21
112.8121239363767
 31
0.0
  0
LINE
  5
379
330
1F
100
AcDbEntity
  8
1
  6
Continuous
 62
     7
100
AcDbLine
 10
-125.9500000000001
 20
91.2270591021412
 30
0.0
 11
-125.9500000000001
 21
113.2270591021412
 31
0.0
  0
ARC
  5
37A
330
1F
100
AcDbEntity
  8
1
  6
Continuous
 62
     7
100
AcDbCircle
 10
-229.3500000000003
 20
158.0270591021412
 30
0.0
 40
3.0
100
AcDbArc
 50
270.0
 51
90.0
  0
ARC
  5
37B
330
1F
100
AcDbEntity
  8
1
  6
Continuous
 62
     7
100
AcDbCircle
 10
-227.8527186767298
 20
158.0297777788709
 30
0.0
 40
1.5027186767297
100
AcDbArc
 50
270.0
 51
85.12445004981936
  0
ARC
  5
37C
330
1F
100
AcDbEntity
  8
1
  6
Continuous
 62
     7
100
AcDbCircle
 10
-170.1900993308874
 20
147.3097393777431
 30
0.0
 40
5.749293434850357
100
AcDbArc
 50
3.24073105468209
 51
49.41827592869041
  0
ARC
  5
37D
330
1F
100
AcDbEntity
  8
1
  6
Continuous
 62
     7
100
AcDbCircle
 10
-170.1900993308874
 20
168.7443788265395
 30
0.0
 40
5.749293434850316
100
AcDbArc
 50
310.5817240713101
 51
356.7592689453207
  0
ARC
  5
37E
330
1F
100
AcDbEntity
  8
1
  6
Continuous
 62
     7
100
AcDbCircle
 10
-173.000316993147
 20
96.7270591021412
 30
0.0
 40
8.553166238926261
100
AcDbArc
 50
319.9813651025717
 51
40.01863489742833
  0
ARC
  5
37F
330
1F
100
AcDbEntity
  8
1
  6
Continuous
 62
     7
100
AcDbCircle
 10
-173.0125000000002
 20
107.7270591021412
 30
0.0
 40
8.5625
100
AcDbArc
 50
320.0337869562001
 51
39.96621304379996
  0
ARC
  5
380
330
1F
100
AcDbEntity
  8
1
  6
Continuous
 62
     7
100
AcDbCircle
 10
-175.5102524957769
 20
158.0270591021414
 30
0.0
 40
11.06442536332382
100
AcDbArc
 50
324.9711727589913
 51
35.02882724100827
  0
ARC
  5
381
330
1F
100
AcDbEntity
  8
0
  6
Continuous
 62
     2
100
AcDbCircle
 10
-219.8418758321517
 20
99.82726669664669
 30
0.0
 40
0.1999827004580407
100
AcDbArc
 50
209.9816393688602
 51
29.98163936889274
  0
ARC
  5
382
330
1F
100
AcDbEntity
  8
0
  6
Continuous
 62
     2
100
AcDbCircle
 10
-218.8500000000003
 20
99.82726669664669
 30
0.0
 40
0.1999827004578947
100
AcDbArc
 50
180.0
 51
0.0
  0
ARC
  5
383
330
1F
100
AcDbEntity
  8
0
  6
Continuous
 62
     2
100
AcDbCircle
 10
-217.8581241678488
 20
99.82726669664669
 30
0.0
 40
0.1999827004578437
100
AcDbArc
 50
150.0183606311073
 51
330.0183606311113
  0
ARC
  5
384
330
1F
100
AcDbEntity
  8
0
  6
Continuous
 62
     2
100
AcDbCircle
 10
-219.8418758321517
 20
104.6268515076353
 30
0.0
 40
0.1999827004583068
100
AcDbArc
 50
90.0
 51
270.0
  0
ARC
  5
385
330
1F
100
AcDbEntity
  8
0
  6
Continuous
 62
     2
100
AcDbCircle
 10
-217.8581241678488
 20
104.6268515076353
 30
0.0
 40
0.1999827004574968
100
AcDbArc
 50
270.0
 51
90.0
  0
ARC
  5
386
330
1F
100
AcDbEntity
  8
0
  6
Continuous
 62
     2
100
AcDbCircle
 10
-221.1109968158264
 20
102.4270418025989
 30
0.0
 40
0.1999827004581955
100
AcDbArc
 50
150.0183606311607
 51
330.0183606310829
  0
ARC
  5
387
330
1F
100
AcDbEntity
  8
0
  6
Continuous
 62
     2
100
AcDbCircle
 10
-217.3966256283308
 20
103.8269207058037
 30
0.0
 40
0.1999827004576957
100
AcDbArc
 50
270.0000000000326
 51
90.0
  0
ARC
  5
388
330
1F
100
AcDbEntity
  8
0
  6
Continuous
 62
     2
100
AcDbCircle
 10
-216.9114373085198
 20
101.3861115759545
 30
0.0
 40
0.1589659761030049
100
AcDbArc
 50
270.0
 51
60.00000000002114
  0
ARC
  5
389
330
1F
100
AcDbEntity
  8
0
  6
Continuous
 62
     2
100
AcDbCircle
 10
-220.7648729111881
 20
101.4271283003099
 30
0.0
 40
0.1999827004573973
100
AcDbArc
 50
90.0
 51
270.0
  0
ARC
  5
38A
330
1F
100
AcDbEntity
  8
0
  6
Continuous
 62
     2
100
AcDbCircle
 10
-219.8413631983555
 20
103.026989903973
 30
0.0
 40
0.1999827004573973
100
AcDbArc
 50
90.0
 51
270.0
  0
ARC
  5
38B
330
1F
100
AcDbEntity
  8
0
  6
Continuous
 62
     2
100
AcDbCircle
 10
-216.9114373085198
 20
103.0680066283275
 30
0.0
 40
0.1589659761025203
100
AcDbArc
 50
300.0000000000505
 51
90.0
  0
ARC
  5
38C
330
1F
100
AcDbEntity
  8
0
  6
Continuous
 62
     7
100
AcDbCircle
 10
-250.0500000000003
 20
164.6270591021416
 30
0.0
 40
0.6999999999997897
100
AcDbArc
 50
90.0
 51
180.0
  0
ARC
  5
38D
330
1F
100
AcDbEntity
  8
0
  6
Continuous
 62
     7
100
AcDbCircle
 10
-251.0500000000003
 20
158.2270591021415
 30
0.0
 40
0.700000000000017
100
AcDbArc
 50
180.0
 51
270.0
  0
ARC
  5
38E
330
1F
100
AcDbEntity
  8
0
  6
Continuous
 62
     7
100
AcDbCircle
 10
-249.2500000000003
 20
159.2270591021413
 30
0.0
 40
0.5
100
AcDbArc
 50
179.9999999999772
 51
270.0
  0
ARC
  5
38F
102
{ACAD_REACTORS
330
488
102
}
330
1F
100
AcDbEntity
  8
0
  6
Continuous
 62
     7
100
AcDbCircle
 10
-264.1500000000002
 20
149.7270591021413
 30
0.0
 40
2.400000000000205
100
AcDbArc
 50
270.0
 51
0.0
  0
ARC
  5
390
330
1F
100
AcDbEntity
  8
0
  6
Continuous
 62
     7
100
AcDbCircle
 10
-265.3500000000002
 20
165.8770591021414
 30
0.0
 40
1.0
100
AcDbArc
 50
0.0
 51
90.0
  0
ARC
  5
391
330
1F
100
AcDbEntity
  8
0
  6
Continuous
 62
     7
100
AcDbCircle
 10
-276.0000000000002
 20
155.9770591021413
 30
0.0
 40
1.0
100
AcDbArc
 50
180.0
 51
270.0
  0
ARC
  5
392
102
{ACAD_REACTORS
330
488
102
}
330
1F
100
AcDbEntity
  8
0
  6
Continuous
 62
     7
100
AcDbCircle
 10
-264.1500000000002
 20
165.9270591021414
 30
0.0
 40
2.399999999999977
100
AcDbArc
 50
0.0
 51
90.0
  0
ARC
  5
393
330
1F
100
AcDbEntity
  8
0
  6
Continuous
 62
     7
100
AcDbCircle
 10
-265.3500000000002
 20
158.1770591021414
 30
0.0
 40
1.0
100
AcDbArc
 50
270.0
 51
0.0
  0
ARC
  5
394
330
1F
100
AcDbEntity
  8
0
  6
Continuous
 62
     7
100
AcDbCircle
 10
-279.1500000000002
 20
165.8770591021414
 30
0.0
 40
1.0
100
AcDbArc
 50
90.0
 51
180.0
  0
ARC
  5
395
330
1F
100
AcDbEntity
  8
0
  6
Continuous
 62
     7
100
AcDbCircle
 10
-269.7500000000002
 20
152.1520591021412
 30
0.0
 40
1.0
100
AcDbArc
 50
0.0
 51
90.0
  0
ARC
  5
396
330
1F
100
AcDbEntity
  8
0
  6
Continuous
 62
     7
100
AcDbCircle
 10
-269.7500000000002
 20
150.1520591021412
 30
0.0
 40
1.0
100
AcDbArc
 50
270.0
 51
0.0
  0
ARC
  5
397
330
1F
100
AcDbEntity
  8
0
  6
Continuous
 62
     7
100
AcDbCircle
 10
-274.7500000000002
 20
150.1520591021412
 30
0.0
 40
1.0
100
AcDbArc
 50
180.0
 51
270.0
  0
ARC
  5
398
330
1F
100
AcDbEntity
  8
0
  6
Continuous
 62
     7
100
AcDbCircle
 10
-274.7500000000002
 20
152.1520591021412
 30
0.0
 40
1.0
100
AcDbArc
 50
90.0
 51
180.0
  0
ARC
  5
399
330
1F
100
AcDbEntity
  8
0
  6
Continuous
 62
     7
100
AcDbCircle
 10
-268.5000000000002
 20
155.9770591021413
 30
0.0
 40
1.0
100
AcDbArc
 50
270.0
 51
0.0
  0
ARC
  5
39A
330
1F
100
AcDbEntity
  8
0
  6
Continuous
 62
     7
100
AcDbCircle
 10
-279.1500000000002
 20
158.1770591021414
 30
0.0
 40
1.0
100
AcDbArc
 50
180.0
 51
270.0
  0
ARC
  5
39B
102
{ACAD_REACTORS
330
488
102
}
330
1F
100
AcDbEntity
  8
0
  6
Continuous
 62
     7
100
AcDbCircle
 10
-280.3500000000002
 20
149.7270591021413
 30
0.0
 40
2.400000000000034
100
AcDbArc
 50
180.0
 51
270.0
  0
ARC
  5
39C
102
{ACAD_REACTORS
330
488
102
}
330
1F
100
AcDbEntity
  8
0
  6
Continuous
 62
     7
100
AcDbCircle
 10
-280.3500000000002
 20
165.9270591021414
 30
0.0
 40
2.399999999999579
100
AcDbArc
 50
90.0
 51
180.0
  0
ARC
  5
39D
330
1F
100
AcDbEntity
  8
1
  6
Continuous
 62
     2
100
AcDbCircle
 10
-271.0500000000002
 20
150.6560782848603
 30
0.0
 40
0.0999999999999563
100
AcDbArc
 50
299.9816393688612
 51
119.9816393688656
  0
ARC
  5
39E
330
1F
100
AcDbEntity
  8
1
  6
Continuous
 62
     2
100
AcDbCircle
 10
-271.0500000000002
 20
151.1520591021412
 30
0.0
 40
0.0999999999997954
100
AcDbArc
 50
270.0
 51
90.0
  0
ARC
  5
39F
330
1F
100
AcDbEntity
  8
1
  6
Continuous
 62
     2
100
AcDbCircle
 10
-271.0500000000002
 20
151.6480399194222
 30
0.0
 40
0.0999999999999033
100
AcDbArc
 50
240.0183606311588
 51
60.01836063122825
  0
ARC
  5
3A0
330
1F
100
AcDbEntity
  8
1
  6
Continuous
 62
     2
100
AcDbCircle
 10
-273.4500000000002
 20
150.6560782848603
 30
0.0
 40
0.0999999999999659
100
AcDbArc
 50
180.0
 51
0.0
  0
ARC
  5
3A1
330
1F
100
AcDbEntity
  8
1
  6
Continuous
 62
     2
100
AcDbCircle
 10
-273.4500000000002
 20
151.6480399194222
 30
0.0
 40
0.1000000000001364
100
AcDbArc
 50
0.0
 51
180.0
  0
ARC
  5
3A2
330
1F
100
AcDbEntity
  8
1
  6
Continuous
 62
     2
100
AcDbCircle
 10
-272.3500000000001
 20
150.021462900245
 30
0.0
 40
0.1000000000003124
100
AcDbArc
 50
240.0183606311437
 51
60.0183606311344
  0
ARC
  5
3A3
330
1F
100
AcDbEntity
  8
1
  6
Continuous
 62
     2
100
AcDbCircle
 10
-273.0500000000002
 20
151.8788091501916
 30
0.0
 40
0.0999999999999659
100
AcDbArc
 50
0.0
 51
180.0
  0
ARC
  5
3A4
330
1F
100
AcDbEntity
  8
1
  6
Continuous
 62
     2
100
AcDbCircle
 10
-271.8294898637432
 20
152.1214242957515
 30
0.0
 40
0.0794898637429924
100
AcDbArc
 50
0.0
 51
149.9999999997637
  0
ARC
  5
3A5
330
1F
100
AcDbEntity
  8
1
  6
Continuous
 62
     2
100
AcDbCircle
 10
-271.8500000000001
 20
150.1945398233218
 30
0.0
 40
0.1000000000001364
100
AcDbArc
 50
180.0
 51
0.0
  0
ARC
  5
3A6
330
1F
100
AcDbEntity
  8
1
  6
Continuous
 62
     2
100
AcDbCircle
 10
-272.6500000000002
 20
150.6563346239311
 30
0.0
 40
0.1000000000000227
100
AcDbArc
 50
180.0
 51
0.0
  0
ARC
  5
3A7
330
1F
100
AcDbEntity
  8
1
  6
Continuous
 62
     2
100
AcDbCircle
 10
-272.6705101362578
 20
152.1214242957515
 30
0.0
 40
0.079489863742894
100
AcDbArc
 50
29.99999999996996
 51
180.0
  0
ARC
  5
3A8
330
1F
100
AcDbEntity
  8
1
  6
Continuous
 62
     2
100
AcDbCircle
 10
-33.62051013625752
 20
152.1214242957515
 30
0.0
 40
0.0794898637427894
100
AcDbArc
 50
30.0000000000135
 51
180.0
  0
ARC
  5
3A9
330
1F
100
AcDbEntity
  8
1
  6
Continuous
 62
     2
100
AcDbCircle
 10
-33.59999999999998
 20
150.6563346239311
 30
0.0
 40
0.1000000000000227
100
AcDbArc
 50
180.0
 51
0.0
  0
ARC
  5
3AA
330
1F
100
AcDbEntity
  8
1
  6
Continuous
 62
     2
100
AcDbCircle
 10
-32.79999999999991
 20
150.1945398233218
 30
0.0
 40
0.1000000000000796
100
AcDbArc
 50
180.0
 51
0.0
  0
ARC
  5
3AB
330
1F
100
AcDbEntity
  8
1
  6
Continuous
 62
     2
100
AcDbCircle
 10
-32.779489863743
 20
152.1214242957515
 30
0.0
 40
0.0794898637429995
100
AcDbArc
 50
0.0
 51
149.9999999997611
  0
ARC
  5
3AC
330
1F
100
AcDbEntity
  8
1
  6
Continuous
 62
     2
100
AcDbCircle
 10
-34.00000000000001
 20
151.8788091501916
 30
0.0
 40
0.1000000000000156
100
AcDbArc
 50
0.0
 51
180.0
  0
ARC
  5
3AD
330
1F
100
AcDbEntity
  8
1
  6
Continuous
 62
     2
100
AcDbCircle
 10
-33.29999999999991
 20
150.021462900245
 30
0.0
 40
0.100000000000284
100
AcDbArc
 50
240.0183606311718
 51
60.01836063113792
  0
ARC
  5
3AE
330
1F
100
AcDbEntity
  8
1
  6
Continuous
 62
     2
100
AcDbCircle
 10
-34.39999999999999
 20
151.6480399194222
 30
0.0
 40
0.1000000000000796
100
AcDbArc
 50
0.0
 51
180.0
  0
ARC
  5
3AF
330
1F
100
AcDbEntity
  8
1
  6
Continuous
 62
     2
100
AcDbCircle
 10
-34.39999999999999
 20
150.6560782848603
 30
0.0
 40
0.1000000000000156
100
AcDbArc
 50
180.0
 51
0.0
  0
ARC
  5
3B0
330
1F
100
AcDbEntity
  8
1
  6
Continuous
 62
     2
100
AcDbCircle
 10
-32.00000000000001
 20
151.6480399194222
 30
0.0
 40
0.0999999999999069
100
AcDbArc
 50
240.0183606311552
 51
60.01836063120179
  0
ARC
  5
3B1
330
1F
100
AcDbEntity
  8
1
  6
Continuous
 62
     2
100
AcDbCircle
 10
-32.00000000000001
 20
151.1520591021412
 30
0.0
 40
0.0999999999997954
100
AcDbArc
 50
270.0
 51
90.0
  0
ARC
  5
3B2
330
1F
100
AcDbEntity
  8
1
  6
Continuous
 62
     2
100
AcDbCircle
 10
-32.00000000000001
 20
150.6560782848603
 30
0.0
 40
0.099999999999983
100
AcDbArc
 50
299.9816393688877
 51
119.9816393688691
  0
ARC
  5
3B3
102
{ACAD_REACTORS
330
489
102
}
330
1F
100
AcDbEntity
  8
0
  6
Continuous
 62
     7
100
AcDbCircle
 10
-41.29999999999997
 20
165.9270591021414
 30
0.0
 40
2.399999999999579
100
AcDbArc
 50
90.0
 51
180.0
  0
ARC
  5
3B4
102
{ACAD_REACTORS
330
489
102
}
330
1F
100
AcDbEntity
  8
0
  6
Continuous
 62
     7
100
AcDbCircle
 10
-41.29999999999997
 20
149.7270591021413
 30
0.0
 40
2.400000000000034
100
AcDbArc
 50
180.0
 51
270.0
  0
ARC
  5
3B5
330
1F
100
AcDbEntity
  8
0
  6
Continuous
 62
     7
100
AcDbCircle
 10
-40.09999999999998
 20
158.1770591021414
 30
0.0
 40
1.0
100
AcDbArc
 50
180.0
 51
270.0
  0
ARC
  5
3B6
330
1F
100
AcDbEntity
  8
0
  6
Continuous
 62
     7
100
AcDbCircle
 10
-29.45
 20
155.9770591021413
 30
0.0
 40
1.0
100
AcDbArc
 50
270.0
 51
0.0
  0
ARC
  5
3B7
330
1F
100
AcDbEntity
  8
0
  6
Continuous
 62
     7
100
AcDbCircle
 10
-35.7
 20
152.1520591021412
 30
0.0
 40
1.0
100
AcDbArc
 50
90.0
 51
180.0
  0
ARC
  5
3B8
330
1F
100
AcDbEntity
  8
0
  6
Continuous
 62
     7
100
AcDbCircle
 10
-35.7
 20
150.1520591021412
 30
0.0
 40
1.0
100
AcDbArc
 50
180.0
 51
270.0
  0
ARC
  5
3B9
330
1F
100
AcDbEntity
  8
0
  6
Continuous
 62
     7
100
AcDbCircle
 10
-30.7
 20
150.1520591021412
 30
0.0
 40
1.0
100
AcDbArc
 50
270.0
 51
0.0
  0
ARC
  5
3BA
330
1F
100
AcDbEntity
  8
0
  6
Continuous
 62
     7
100
AcDbCircle
 10
-30.7
 20
152.1520591021412
 30
0.0
 40
1.0
100
AcDbArc
 50
0.0
 51
90.0
  0
ARC
  5
3BB
330
1F
100
AcDbEntity
  8
0
  6
Continuous
 62
     7
100
AcDbCircle
 10
-40.09999999999998
 20
165.8770591021414
 30
0.0
 40
1.0
100
AcDbArc
 50
90.0
 51
180.0
  0
ARC
  5
3BC
330
1F
100
AcDbEntity
  8
0
  6
Continuous
 62
     7
100
AcDbCircle
 10
-26.29999999999997
 20
158.1770591021414
 30
0.0
 40
1.0
100
AcDbArc
 50
270.0
 51
0.0
  0
ARC
  5
3BD
102
{ACAD_REACTORS
330
489
102
}
330
1F
100
AcDbEntity
  8
0
  6
Continuous
 62
     7
100
AcDbCircle
 10
-25.09999999999998
 20
165.9270591021414
 30
0.0
 40
2.399999999999981
100
AcDbArc
 50
0.0
 51
90.0
  0
ARC
  5
3BE
330
1F
100
AcDbEntity
  8
0
  6
Continuous
 62
     7
100
AcDbCircle
 10
-36.95
 20
155.9770591021413
 30
0.0
 40
1.0
100
AcDbArc
 50
180.0
 51
270.0
  0
ARC
  5
3BF
330
1F
100
AcDbEntity
  8
0
  6
Continuous
 62
     7
100
AcDbCircle
 10
-26.29999999999997
 20
165.8770591021414
 30
0.0
 40
1.0
100
AcDbArc
 50
0.0
 51
90.0
  0
ARC
  5
3C0
102
{ACAD_REACTORS
330
489
102
}
330
1F
100
AcDbEntity
  8
0
  6
Continuous
 62
     7
100
AcDbCircle
 10
-25.09999999999998
 20
149.7270591021413
 30
0.0
 40
2.400000000000205
100
AcDbArc
 50
270.0
 51
0.0
  0
ARC
  5
3C1
330
1F
100
AcDbEntity
  8
1
  6
Continuous
 62
     7
100
AcDbCircle
 10
-152.5875000000002
 20
159.7770591021414
 30
0.0
 40
2.1875
100
AcDbArc
 50
126.869897645844
 51
233.130102354156
  0
ARC
  5
3C2
330
1F
100
AcDbEntity
  8
1
  6
Continuous
 62
     7
100
AcDbCircle
 10
-155.2125000000002
 20
159.7770591021414
 30
0.0
 40
2.1875
100
AcDbArc
 50
306.869897645844
 51
53.13010235415597
  0
ARC
  5
3C3
330
1F
100
AcDbEntity
  8
1
  6
Continuous
 62
     7
100
AcDbCircle
 10
-155.2125000000002
 20
156.2770591021414
 30
0.0
 40
2.1875
100
AcDbArc
 50
306.869897645844
 51
53.13010235415597
  0
ARC
  5
3C4
330
1F
100
AcDbEntity
  8
1
  6
Continuous
 62
     7
100
AcDbCircle
 10
-149.5875000000002
 20
159.7770591021414
 30
0.0
 40
2.1875
100
AcDbArc
 50
126.869897645844
 51
233.130102354156
  0
ARC
  5
3C5
330
1F
100
AcDbEntity
  8
1
  6
Continuous
 62
     7
100
AcDbCircle
 10
-152.2125000000002
 20
156.2770591021414
 30
0.0
 40
2.1875
100
AcDbArc
 50
306.869897645844
 51
53.13010235415597
  0
ARC
  5
3C6
330
1F
100
AcDbEntity
  8
1
  6
Continuous
 62
     7
100
AcDbCircle
 10
-149.5875000000002
 20
156.2770591021414
 30
0.0
 40
2.1875
100
AcDbArc
 50
126.869897645844
 51
233.130102354156
  0
ARC
  5
3C7
330
1F
100
AcDbEntity
  8
1
  6
Continuous
 62
     7
100
AcDbCircle
 10
-149.5875000000002
 20
100.4770591021412
 30
0.0
 40
2.1875
100
AcDbArc
 50
126.869897645844
 51
233.130102354156
  0
ARC
  5
3C8
330
1F
100
AcDbEntity
  8
1
  6
Continuous
 62
     7
100
AcDbCircle
 10
-152.2125000000002
 20
100.4770591021412
 30
0.0
 40
2.1875
100
AcDbArc
 50
306.869897645844
 51
53.13010235415597
  0
ARC
  5
3C9
330
1F
100
AcDbEntity
  8
1
  6
Continuous
 62
     7
100
AcDbCircle
 10
-149.5875000000002
 20
103.9770591021412
 30
0.0
 40
2.1875
100
AcDbArc
 50
126.869897645844
 51
233.130102354156
  0
ARC
  5
3CA
330
1F
100
AcDbEntity
  8
1
  6
Continuous
 62
     7
100
AcDbCircle
 10
-155.2125000000002
 20
100.4770591021412
 30
0.0
 40
2.1875
100
AcDbArc
 50
306.869897645844
 51
53.13010235415597
  0
ARC
  5
3CB
330
1F
100
AcDbEntity
  8
1
  6
Continuous
 62
     7
100
AcDbCircle
 10
-155.2125000000002
 20
103.9770591021412
 30
0.0
 40
2.1875
100
AcDbArc
 50
306.869897645844
 51
53.13010235415597
  0
ARC
  5
3CC
330
1F
100
AcDbEntity
  8
1
  6
Continuous
 62
     7
100
AcDbCircle
 10
-152.5875000000002
 20
103.9770591021412
 30
0.0
 40
2.1875
100
AcDbArc
 50
126.869897645844
 51
233.130102354156
  0
ARC
  5
3CD
330
1F
100
AcDbEntity
  8
0
  6
Continuous
 62
     7
100
AcDbCircle
 10
-55.54999999999998
 20
159.2270591021415
 30
0.0
 40
0.5
100
AcDbArc
 50
270.0
 51
0.0
  0
ARC
  5
3CE
330
1F
100
AcDbEntity
  8
0
  6
Continuous
 62
     7
100
AcDbCircle
 10
-53.75000000000003
 20
158.2270591021415
 30
0.0
 40
0.7000000000001023
100
AcDbArc
 50
270.0
 51
0.0
  0
ARC
  5
3CF
330
1F
100
AcDbEntity
  8
0
  6
Continuous
 62
     7
100
AcDbCircle
 10
-54.75000000000003
 20
164.6270591021416
 30
0.0
 40
0.7000000000000455
100
AcDbArc
 50
0.0
 51
90.0
  0
ARC
  5
3D0
330
1F
100
AcDbEntity
  8
0
  6
Continuous
 62
     2
100
AcDbCircle
 10
-87.88856269148053
 20
103.0680066283275
 30
0.0
 40
0.1589659761029054
100
AcDbArc
 50
90.0
 51
239.9999999999672
  0
ARC
  5
3D1
330
1F
100
AcDbEntity
  8
0
  6
Continuous
 62
     2
100
AcDbCircle
 10
-84.95863680164481
 20
103.026989903973
 30
0.0
 40
0.1999827004583068
100
AcDbArc
 50
270.0
 51
90.0
  0
ARC
  5
3D2
330
1F
100
AcDbEntity
  8
0
  6
Continuous
 62
     2
100
AcDbCircle
 10
-84.03512708881223
 20
101.4271283003099
 30
0.0
 40
0.1999827004584063
100
AcDbArc
 50
270.0
 51
90.0
  0
ARC
  5
3D3
330
1F
100
AcDbEntity
  8
0
  6
Continuous
 62
     2
100
AcDbCircle
 10
-87.88856269148053
 20
101.3861115759545
 30
0.0
 40
0.1589659761028364
100
AcDbArc
 50
119.9999999999611
 51
270.0
  0
ARC
  5
3D4
330
1F
100
AcDbEntity
  8
0
  6
Continuous
 62
     2
100
AcDbCircle
 10
-87.40337437166951
 20
103.8269207058037
 30
0.0
 40
0.1999827004582926
100
AcDbArc
 50
90.0
 51
269.9999999999674
  0
ARC
  5
3D5
330
1F
100
AcDbEntity
  8
0
  6
Continuous
 62
     2
100
AcDbCircle
 10
-83.68900318417386
 20
102.4270418025989
 30
0.0
 40
0.1999827004577453
100
AcDbArc
 50
209.981639368909
 51
29.98163936884744
  0
ARC
  5
3D6
330
1F
100
AcDbEntity
  8
0
  6
Continuous
 62
     2
100
AcDbCircle
 10
-86.94187583215151
 20
104.6268515076353
 30
0.0
 40
0.1999827004581078
100
AcDbArc
 50
89.99999999998371
 51
270.0
  0
ARC
  5
3D7
330
1F
100
AcDbEntity
  8
0
  6
Continuous
 62
     2
100
AcDbCircle
 10
-84.95812416784864
 20
104.6268515076353
 30
0.0
 40
0.1999827004574968
100
AcDbArc
 50
270.0
 51
90.0
  0
ARC
  5
3D8
330
1F
100
AcDbEntity
  8
0
  6
Continuous
 62
     2
100
AcDbCircle
 10
-86.94187583215151
 20
99.82726669664669
 30
0.0
 40
0.199982700457893
100
AcDbArc
 50
209.9816393688846
 51
29.98163936889274
  0
ARC
  5
3D9
330
1F
100
AcDbEntity
  8
0
  6
Continuous
 62
     2
100
AcDbCircle
 10
-85.95000000000002
 20
99.82726669664669
 30
0.0
 40
0.1999827004577241
100
AcDbArc
 50
180.0
 51
0.0
  0
ARC
  5
3DA
330
1F
100
AcDbEntity
  8
0
  6
Continuous
 62
     2
100
AcDbCircle
 10
-84.95812416784864
 20
99.82726669664669
 30
0.0
 40
0.1999827004578437
100
AcDbArc
 50
150.0183606311073
 51
330.0183606311398
  0
ARC
  5
3DB
330
1F
100
AcDbEntity
  8
1
  6
Continuous
 62
     7
100
AcDbCircle
 10
-129.2897475042234
 20
158.0270591021414
 30
0.0
 40
11.06442536332373
100
AcDbArc
 50
144.9711727589917
 51
215.0288272410088
  0
ARC
  5
3DC
330
1F
100
AcDbEntity
  8
1
  6
Continuous
 62
     7
100
AcDbCircle
 10
-131.7875000000001
 20
107.7270591021412
 30
0.0
 40
8.5625
100
AcDbArc
 50
140.0337869562
 51
219.9662130438
  0
ARC
  5
3DD
330
1F
100
AcDbEntity
  8
1
  6
Continuous
 62
     7
100
AcDbCircle
 10
-131.7996830068533
 20
96.7270591021412
 30
0.0
 40
8.553166238926261
100
AcDbArc
 50
139.9813651025717
 51
220.0186348974272
  0
ARC
  5
3DE
330
1F
100
AcDbEntity
  8
1
  6
Continuous
 62
     7
100
AcDbCircle
 10
-134.6099006691129
 20
168.7443788265395
 30
0.0
 40
5.749293434850341
100
AcDbArc
 50
183.2407310546792
 51
229.4182759286898
  0
ARC
  5
3DF
330
1F
100
AcDbEntity
  8
1
  6
Continuous
 62
     7
100
AcDbCircle
 10
-134.6099006691129
 20
147.3097393777431
 30
0.0
 40
5.749293434850381
100
AcDbArc
 50
130.5817240713096
 51
176.7592689453179
  0
ARC
  5
3E0
330
1F
100
AcDbEntity
  8
1
  6
Continuous
 62
     7
100
AcDbCircle
 10
-76.94728132327046
 20
158.0297777788709
 30
0.0
 40
1.502718676729604
100
AcDbArc
 50
94.87554995018282
 51
270.0
  0
ARC
  5
3E1
330
1F
100
AcDbEntity
  8
1
  6
Continuous
 62
     7
100
AcDbCircle
 10
-75.45000000000002
 20
158.0270591021412
 30
0.0
 40
3.0
100
AcDbArc
 50
90.0
 51
270.0
  0
CIRCLE
  5
3E2
330
1F
100
AcDbEntity
  8
1
  6
Continuous
 62
     7
100
AcDbCircle
 10
-272.2500000000002
 20
161.1270591021415
 30
0.0
 40
1.0
  0
CIRCLE
  5
3E3
330
1F
100
AcDbEntity
  8
1
  6
Continuous
 62
     7
100
AcDbCircle
 10
-33.2
 20
161.1270591021415
 30
0.0
 40
1.0
  0
SPLINE
  5
3E4
330
1F
100
AcDbEntity
  8
1
  6
Continuous
 62
     7
100
AcDbSpline
210
0.0
220
0.0
230
1.0
 70
     8
 71
     3
 72
     9
 73
     5
 74
     3
 42
0.000000001
 43
0.0000000001
 44
0.00000001
 40
0.0
 40
0.0
 40
0.0
 40
0.0
 40
0.833126151296295
 40
1.664756411482782
 40
1.664756411482782
 40
1.664756411482782
 40
1.664756411482782
 10
-198.4265347639557
 20
146.6919942679057
 30
0.0
 10
-198.3567516268036
 20
146.9657868304958
 30
0.0
 10
-198.2173106686583
 20
147.5128803584692
 30
0.0
 10
-198.3568351829775
 20
148.0599312791166
 30
0.0
 10
-198.4265347639557
 20
148.3332109583277
 30
0.0
 11
-198.4265347639557
 21
146.6919942679057
 31
0.0
 11
-198.2870521206252
 21
147.5133612863423
 31
0.0
 11
-198.4265347639557
 21
148.3332109583277
 31
0.0
  0
SPLINE
  5
3E5
330
1F
100
AcDbEntity
  8
1
  6
Continuous
 62
     7
100
AcDbSpline
210
0.0
220
0.0
230
1.0
 70
     8
 71
     3
 72
    27
 73
    23
 74
    21
 42
0.000000001
 43
0.0000000001
 44
0.00000001
 40
0.0
 40
0.0
 40
0.0
 40
0.0
 40
0.5277949645338446
 40
1.056286541498758
 40
2.107574574342672
 40
3.158914785736702
 40
4.196239092402143
 40
5.233668437820276
 40
6.249252759600239
 40
7.264994923558596
 40
8.253287748995538
 40
9.241787226173216
 40
10.20022179001873
 40
11.15889868720162
 40
12.08844732723546
 40
13.01824587602826
 40
13.92361260232424
 40
14.82919211603736
 40
15.66829744935921
 40
16.40391238890047
 40
17.13273797118255
 40
17.96477941939473
 40
17.96477941939473
 40
17.96477941939473
 40
17.96477941939473
 10
-198.4265347639519
 20
148.3332109583277
 30
0.0
 10
-198.2505922903374
 20
148.3350682099183
 30
0.0
 10
-197.8984751249477
 20
148.3387851786933
 30
0.0
 10
-197.1968628432653
 20
148.3783178369104
 30
0.0
 10
-196.3241939523148
 20
148.4732320042732
 30
0.0
 10
-195.2939616143275
 20
148.6633024230679
 30
0.0
 10
-194.2850543420894
 20
148.9277185758819
 30
0.0
 10
-193.3101207527335
 20
149.2634479578839
 30
0.0
 10
-192.3703898298474
 20
149.670066323265
 30
0.0
 10
-191.4799328660355
 20
150.1416479094311
 30
0.0
 10
-190.6379310320031
 20
150.6785353386644
 30
0.0
 10
-189.8586619681648
 20
151.2721184073555
 30
0.0
 10
-189.1401856600129
 20
151.923419402818
 30
0.0
 10
-188.4957165202094
 20
152.6216381002506
 30
0.0
 10
-187.9230012403431
 20
153.3678951776025
 30
0.0
 10
-187.4334325040659
 20
154.150301552886
 30
0.0
 10
-187.0238369141425
 20
154.9686723454023
 30
0.0
 10
-186.713274429339
 20
155.7971817648002
 30
0.0
 10
-186.4869557655844
 20
156.5929866849499
 30
0.0
 10
-186.3333582293708
 20
157.3466766403944
 30
0.0
 10
-186.2844026593659
 20
158.1137321309731
 30
0.0
 10
-186.3269738562565
 20
158.632801778856
 30
0.0
 10
-186.3496670201314
 20
158.9094989301918
 30
0.0
 11
-198.4265347639519
 21
148.3332109583277
 31
0.0
 11
-197.8988269428558
 21
148.3428014716185
 31
0.0
 11
-197.3711191217599
 21
148.3715730114904
 31
0.0
 11
-196.3260865115635
 21
148.4860866351851
 31
0.0
 11
-195.2922031791396
 21
148.6768783919641
 31
0.0
 11
-194.2888532183851
 21
148.9401853863494
 31
0.0
 11
-193.3080796615492
 21
149.2783316224421
 31
0.0
 11
-192.376193499634
 21
149.6820638307379
 31
0.0
 11
-191.4788003365415
 21
150.157897472546
 31
0.0
 11
-190.6458348790835
 21
150.6897726982455
 31
0.0
 11
-189.8598226168276
 21
151.2892023773551
 31
0.0
 11
-189.1502490329626
 21
151.9334865867512
 31
0.0
 11
-188.5003956975433
 21
152.6382929685641
 31
0.0
 11
-187.9352067508655
 21
153.376278150612
 31
0.0
 11
-187.4421226952795
 21
154.1645632865953
 31
0.0
 11
-187.0384686238241
 21
154.9749658407645
 31
0.0
 11
-186.7176792930689
 21
155.8218238341927
 31
0.0
 11
-186.4884975017491
 21
156.6290248424814
 31
0.0
 11
-186.3496670201312
 21
157.3514204689786
 31
0.0
 11
-186.3031394638633
 21
158.0787594008632
 31
0.0
 11
-186.3496670201314
 21
158.9094989301918
 31
0.0
  0
SPLINE
  5
3E6
330
1F
100
AcDbEntity
  8
1
  6
Continuous
 62
     7
100
AcDbSpline
210
0.0
220
0.0
230
1.0
 70
     8
 71
     3
 72
    25
 73
    21
 74
    19
 42
0.000000001
 43
0.0000000001
 44
0.00000001
 40
0.0
 40
0.0
 40
0.0
 40
0.0
 40
0.5840352822932903
 40
1.373532345838993
 40
2.279111858804149
 40
3.184478584124636
 40
4.114277131980516
 40
5.043825771174465
 40
6.002502667593046
 40
6.960937230767986
 40
7.949436707338476
 40
8.93772953224079
 40
9.95347169570941
 40
10.96905601704411
 40
12.00648536202981
 40
13.04380966824733
 40
14.09514987908356
 40
15.14643791098563
 40
15.67492948706822
 40
16.20272444986697
 40
16.20272444986697
 40
16.20272444986697
 40
16.20272444986697
 10
-186.3496670201314
 20
158.9094989301918
 30
0.0
 10
-186.3940932077143
 20
159.0990869878426
 30
0.0
 10
-186.4985745919039
 20
159.5449595836296
 30
0.0
 10
-186.7228942128953
 20
160.2713132270968
 30
0.0
 10
-187.0227599115404
 20
161.0857663786587
 30
0.0
 10
-187.4337297315832
 20
161.9037282022723
 30
0.0
 10
-187.9229208226997
 20
162.6862469630617
 30
0.0
 10
-188.4957388275953
 20
163.4324734688555
 30
0.0
 10
-189.1401796227667
 20
164.1307006009094
 30
0.0
 10
-189.85866365129
 20
164.7819992982239
 30
0.0
 10
-190.6379305840979
 20
165.3755830006269
 30
0.0
 10
-191.4799329975946
 20
165.9124702570163
 30
0.0
 10
-192.3703898014379
 20
166.3840518904711
 30
0.0
 10
-193.3101207671945
 20
166.7906702428421
 30
0.0
 10
-194.2850543442563
 20
167.1263996283109
 30
0.0
 10
-195.2939616192011
 20
167.39081578018
 30
0.0
 10
-196.3241939556327
 20
167.5808861993263
 30
0.0
 10
-197.1968628459676
 20
167.6758003668475
 30
0.0
 10
-197.8984751264152
 20
167.7153330253798
 30
0.0
 10
-198.2505922909334
 20
167.7190499943706
 30
0.0
 10
-198.426534763971
 20
167.7209072459545
 30
0.0
 11
-186.3496670201314
 21
158.9094989301918
 31
0.0
 11
-186.4884975017492
 21
159.4767936605231
 31
0.0
 11
-186.7176792930689
 21
160.2322943700898
 31
0.0
 11
-187.0384686238241
 21
161.0791523635178
 31
0.0
 11
-187.4421226952795
 21
161.889554917687
 31
0.0
 11
-187.9352067508655
 21
162.6778400536704
 31
0.0
 11
-188.5003956975433
 21
163.4158252357183
 31
0.0
 11
-189.1502490329626
 21
164.1206316175313
 31
0.0
 11
-189.8598226168276
 21
164.7649158269273
 31
0.0
 11
-190.6458348790835
 21
165.3643455060369
 31
0.0
 11
-191.4788003365415
 21
165.8962207317363
 31
0.0
 11
-192.376193499634
 21
166.3720543735444
 31
0.0
 11
-193.3080796615491
 21
166.7757865818402
 31
0.0
 11
-194.2888532183849
 21
167.113932817933
 31
0.0
 11
-195.2922031791394
 21
167.3772398123184
 31
0.0
 11
-196.3260865115635
 21
167.5680315690973
 31
0.0
 11
-197.3711191217599
 21
167.6825451927919
 31
0.0
 11
-197.8988269428655
 21
167.7113167326641
 31
0.0
 11
-198.426534763971
 21
167.7209072459545
 31
0.0
  0
SPLINE
  5
3E7
330
1F
100
AcDbEntity
  8
1
  6
Continuous
 62
     7
100
AcDbSpline
210
0.0
220
0.0
230
1.0
 70
     8
 71
     3
 72
     9
 73
     5
 74
     3
 42
0.000000001
 43
0.0000000001
 44
0.00000001
 40
0.0
 40
0.0
 40
0.0
 40
0.0
 40
0.833126151296323
 40
1.664756411482978
 40
1.664756411482978
 40
1.664756411482978
 40
1.664756411482978
 10
-198.4265347639557
 20
169.3621239363767
 30
0.0
 10
-198.3567516268036
 20
169.0883313737866
 30
0.0
 10
-198.2173106686583
 20
168.5412378458132
 30
0.0
 10
-198.3568351829775
 20
167.9941869251656
 30
0.0
 10
-198.4265347639557
 20
167.7209072459545
 30
0.0
 11
-198.4265347639557
 21
169.3621239363767
 31
0.0
 11
-198.2870521206252
 21
168.54075691794
 31
0.0
 11
-198.4265347639557
 21
167.7209072459545
 31
0.0
  0
SPLINE
  5
3E8
330
1F
100
AcDbEntity
  8
1
  6
Continuous
 62
     7
100
AcDbSpline
210
0.0
220
0.0
230
1.0
 70
     8
 71
     3
 72
     9
 73
     5
 74
     3
 42
0.000000001
 43
0.0000000001
 44
0.00000001
 40
0.0
 40
0.0
 40
0.0
 40
0.0
 40
0.8331261512963369
 40
1.664756411482978
 40
1.664756411482978
 40
1.664756411482978
 40
1.664756411482978
 10
-198.4265347639557
 20
90.89199426790572
 30
0.0
 10
-198.3567516268036
 20
91.16578683049583
 30
0.0
 10
-198.2173106686583
 20
91.7128803584693
 30
0.0
 10
-198.3568351829775
 20
92.25993127911686
 30
0.0
 10
-198.4265347639557
 20
92.53321095832791
 30
0.0
 11
-198.4265347639557
 21
90.89199426790572
 31
0.0
 11
-198.2870521206252
 21
91.71336128634238
 31
0.0
 11
-198.4265347639557
 21
92.53321095832791
 31
0.0
  0
SPLINE
  5
3E9
330
1F
100
AcDbEntity
  8
1
  6
Continuous
 62
     7
100
AcDbSpline
210
0.0
220
0.0
230
1.0
 70
     8
 71
     3
 72
    45
 73
    41
 74
    39
 42
0.000000001
 43
0.0000000001
 44
0.00000001
 40
0.0
 40
0.0
 40
0.0
 40
0.0
 40
0.5277949561129093
 40
1.056286530855007
 40
2.107574562078175
 40
3.158914772807005
 40
4.196239079114899
 40
5.23366842430373
 40
6.249252745916182
 40
7.264994909730282
 40
8.253287735031101
 40
9.241787212061789
 40
10.20022177574768
 40
11.15889867274243
 40
12.08844731256552
 40
13.01824586110915
 40
13.87708386423967
 40
14.6378743089032
 40
15.37922707105343
 40
16.21789518522641
 40
17.10156076843283
 40
17.98522635163937
 40
18.82389446581257
 40
19.56524722796271
 40
20.32603767262608
 40
21.18487567575662
 40
22.11467422430029
 40
23.04422286412345
 40
24.00289976111825
 40
24.96133432480416
 40
25.94983380183486
 40
26.9381266271356
 40
27.95386879094965
 40
28.96945311256209
 40
30.0068824577509
 40
31.04420676405882
 40
32.09554697478769
 40
33.14683500601085
 40
33.67532658076255
 40
34.20312153688494
 40
34.20312153688494
 40
34.20312153688494
 40
34.20312153688494
 10
-198.4265347639519
 20
92.53321095832769
 30
0.0
 10
-198.2505922931312
 20
92.53506820988014
 30
0.0
 10
-197.8984751312254
 20
92.5387851759557
 30
0.0
 10
-197.1968628538256
 20
92.57831783378319
 30
0.0
 10
-196.3241939622741
 20
92.67323199908941
 30
0.0
 10
-195.2939616335683
 20
92.8633024229709
 30
0.0
 10
-194.2850543306916
 20
93.12771855563673
 30
0.0
 10
-193.3101208559419
 20
93.46344801040837
 30
0.0
 10
-192.3703895145696
 20
93.87006610814305
 30
0.0
 10
-191.4799340919635
 20
94.34164867827104
 30
0.0
 10
-190.6379266542281
 20
94.87853252831742
 30
0.0
 10
-189.8586781759631
 20
95.47212874386094
 30
0.0
 10
-189.1401272660446
 20
96.12338209390086
 30
0.0
 10
-188.4959319945961
 20
96.82177569960308
 30
0.0
 10
-187.922224150493
 20
97.56739886628861
 30
0.0
 10
-187.4444821067067
 20
98.3389289323402
 30
0.0
 10
-187.0497394971704
 20
99.0915313518729
 30
0.0
 10
-186.7044475652544
 20
99.79967681021915
 30
0.0
 10
-186.4597582752727
 20
100.5441526874437
 30
0.0
 10
-186.3337267570378
 20
101.3583011294481
 30
0.0
 10
-186.28744627256
 20
102.2270591021412
 30
0.0
 10
-186.3337267570379
 20
103.0958170748342
 30
0.0
 10
-186.4597582752727
 20
103.9099655168388
 30
0.0
 10
-186.7044475652543
 20
104.6544413940633
 30
0.0
 10
-187.0497394971704
 20
105.3625868524094
 30
0.0
 10
-187.4444821067067
 20
106.1151892719422
 30
0.0
 10
-187.9222241504928
 20
106.8867193379937
 30
0.0
 10
-188.4959319945961
 20
107.6323425046793
 30
0.0
 10
-189.1401272660447
 20
108.3307361103816
 30
0.0
 10
-189.8586781759631
 20
108.9819894604216
 30
0.0
 10
-190.6379266542281
 20
109.5755856759651
 30
0.0
 10
-191.4799340919635
 20
110.1124695260114
 30
0.0
 10
-192.3703895145696
 20
110.5840520961392
 30
0.0
 10
-193.3101208559419
 20
110.9906701938739
 30
0.0
 10
-194.2850543306915
 20
111.3263996486457
 30
0.0
 10
-195.2939616335682
 20
111.5908157813115
 30
0.0
 10
-196.3241939622741
 20
111.780886205193
 30
0.0
 10
-197.1968628538287
 20
111.8758003704993
 30
0.0
 10
-197.898475131235
 20
111.915333028327
 30
0.0
 10
-198.2505922931471
 20
111.9190499944022
 30
0.0
 10
-198.426534763971
 20
111.9209072459545
 30
0.0
 11
-198.4265347639519
 21
92.53321095832769
 31
0.0
 11
-197.898826942856
 21
92.54280147161847
 31
0.0
 11
-197.37111912176
 21
92.57157301149036
 31
0.0
 11
-196.3260865115636
 21
92.68608663518509
 31
0.0
 11
-195.2922031791397
 21
92.87687839196406
 31
0.0
 11
-194.2888532183852
 21
93.14018538634942
 31
0.0
 11
-193.3080796615494
 21
93.47833162244208
 31
0.0
 11
-192.3761934996342
 21
93.88206383073786
 31
0.0
 11
-191.4788003365416
 21
94.35789747254594
 31
0.0
 11
-190.6458348790835
 21
94.88977269824551
 31
0.0
 11
-189.8598226168277
 21
95.48920237735507
 31
0.0
 11
-189.1502490329628
 21
96.13348658675113
 31
0.0
 11
-188.5003956975435
 21
96.8382929685641
 31
0.0
 11
-187.9352067508656
 21
97.576278150612
 31
0.0
 11
-187.4421226952796
 21
98.36456328659528
 31
0.0
 11
-187.0384686238243
 21
99.12263063632665
 31
0.0
 11
-186.717679293069
 21
99.81248301644146
 31
0.0
 11
-186.4884975017493
 21
100.5175217564393
 31
0.0
 11
-186.3496670201314
 21
101.3446192740905
 31
0.0
 11
-186.3031394638636
 21
102.2270591021411
 31
0.0
 11
-186.3496670201315
 21
103.1094989301918
 31
0.0
 11
-186.4884975017493
 21
103.9365964478432
 31
0.0
 11
-186.717679293069
 21
104.641635187841
 31
0.0
 11
-187.0384686238243
 21
105.3314875679556
 31
0.0
 11
-187.4421226952796
 21
106.089554917687
 31
0.0
 11
-187.9352067508656
 21
106.8778400536704
 31
0.0
 11
-188.5003956975435
 21
107.6158252357183
 31
0.0
 11
-189.1502490329629
 21
108.3206316175313
 31
0.0
 11
-189.8598226168277
 21
108.9649158269274
 31
0.0
 11
-190.6458348790835
 21
109.564345506037
 31
0.0
 11
-191.4788003365416
 21
110.0962207317365
 31
0.0
 11
-192.3761934996342
 21
110.5720543735444
 31
0.0
 11
-193.3080796615494
 21
110.9757865818402
 31
0.0
 11
-194.2888532183851
 21
111.313932817933
 31
0.0
 11
-195.2922031791396
 21
111.5772398123184
 31
0.0
 11
-196.3260865115636
 21
111.7680315690972
 31
0.0
 11
-197.37111912176
 21
111.8825451927918
 31
0.0
 11
-197.8988269428656
 21
111.911316732664
 31
0.0
 11
-198.426534763971
 21
111.9209072459545
 31
0.0
  0
SPLINE
  5
3EA
330
1F
100
AcDbEntity
  8
1
  6
Continuous
 62
     7
100
AcDbSpline
210
0.0
220
0.0
230
1.0
 70
     8
 71
     3
 72
     9
 73
     5
 74
     3
 42
0.000000001
 43
0.0000000001
 44
0.00000001
 40
0.0
 40
0.0
 40
0.0
 40
0.0
 40
0.833126151296323
 40
1.664756411482978
 40
1.664756411482978
 40
1.664756411482978
 40
1.664756411482978
 10
-198.4265347639557
 20
113.5621239363767
 30
0.0
 10
-198.3567516268035
 20
113.2883313737866
 30
0.0
 10
-198.2173106686583
 20
112.7412378458131
 30
0.0
 10
-198.3568351829774
 20
112.1941869251656
 30
0.0
 10
-198.4265347639557
 20
111.9209072459545
 30
0.0
 11
-198.4265347639557
 21
113.5621239363767
 31
0.0
 11
-198.2870521206252
 21
112.74075691794
 31
0.0
 11
-198.4265347639557
 21
111.9209072459545
 31
0.0
  0
SPLINE
  5
3EB
330
1F
100
AcDbEntity
  8
1
  6
Continuous
 62
     7
100
AcDbSpline
210
0.0
220
0.0
230
1.0
 70
     8
 71
     3
 72
     9
 73
     5
 74
     3
 42
0.000000001
 43
0.0000000001
 44
0.00000001
 40
0.0
 40
0.0
 40
0.0
 40
0.0
 40
0.8977364694377976
 40
1.816490532367889
 40
1.816490532367889
 40
1.816490532367889
 40
1.816490532367889
 10
-233.8500000000002
 20
90.4770591021412
 30
0.0
 10
-233.6568775748615
 20
90.74637028522952
 30
0.0
 10
-233.2661114044466
 20
91.29129770505949
 30
0.0
 10
-233.6538749311868
 20
91.8404982673792
 30
0.0
 10
-233.8500000000002
 20
92.1182757925634
 30
0.0
 11
-233.8500000000002
 21
90.4770591021412
 31
0.0
 11
-233.4607872461174
 21
91.28603636292729
 31
0.0
 11
-233.8500000000002
 21
92.1182757925634
 31
0.0
  0
SPLINE
  5
3EC
330
1F
100
AcDbEntity
  8
1
  6
Continuous
 62
     7
100
AcDbSpline
210
0.0
220
0.0
230
1.0
 70
     8
 71
     3
 72
     9
 73
     5
 74
     3
 42
0.000000001
 43
0.0000000001
 44
0.00000001
 40
0.0
 40
0.0
 40
0.0
 40
0.0
 40
0.8977364694377462
 40
1.816490532367709
 40
1.816490532367709
 40
1.816490532367709
 40
1.816490532367709
 10
-233.8500000000002
 20
113.9770591021412
 30
0.0
 10
-233.6568775748614
 20
113.7077479190528
 30
0.0
 10
-233.2661114044466
 20
113.162820499223
 30
0.0
 10
-233.6538749311869
 20
112.6136199369034
 30
0.0
 10
-233.8500000000002
 20
112.3358424117192
 30
0.0
 11
-233.8500000000002
 21
113.9770591021412
 31
0.0
 11
-233.4607872461174
 21
113.1680818413552
 31
0.0
 11
-233.8500000000002
 21
112.3358424117192
 31
0.0
  0
SPLINE
  5
3ED
330
1F
100
AcDbEntity
  8
1
  6
Continuous
 62
     7
100
AcDbSpline
210
0.0
220
0.0
230
1.0
 70
     8
 71
     3
 72
     9
 73
     5
 74
     3
 42
0.000000001
 43
0.0000000001
 44
0.00000001
 40
0.0
 40
0.0
 40
0.0
 40
0.0
 40
0.897736469437772
 40
1.816490532367709
 40
1.816490532367709
 40
1.816490532367709
 40
1.816490532367709
 10
-233.8500000000002
 20
169.7770591021412
 30
0.0
 10
-233.6568775748614
 20
169.5077479190528
 30
0.0
 10
-233.2661114044465
 20
168.962820499223
 30
0.0
 10
-233.6538749311869
 20
168.4136199369034
 30
0.0
 10
-233.8500000000002
 20
168.1358424117192
 30
0.0
 11
-233.8500000000002
 21
169.7770591021412
 31
0.0
 11
-233.4607872461174
 21
168.9680818413551
 31
0.0
 11
-233.8500000000002
 21
168.1358424117192
 31
0.0
  0
SPLINE
  5
3EE
330
1F
100
AcDbEntity
  8
1
  6
Continuous
 62
     7
100
AcDbSpline
210
0.0
220
0.0
230
1.0
 70
     8
 71
     3
 72
     9
 73
     5
 74
     3
 42
0.000000001
 43
0.0000000001
 44
0.00000001
 40
0.0
 40
0.0
 40
0.0
 40
0.0
 40
0.8977364694377976
 40
1.816490532367889
 40
1.816490532367889
 40
1.816490532367889
 40
1.816490532367889
 10
-233.8500000000002
 20
146.2770591021412
 30
0.0
 10
-233.6568775748615
 20
146.5463702852295
 30
0.0
 10
-233.2661114044466
 20
147.0912977050595
 30
0.0
 10
-233.6538749311868
 20
147.6404982673792
 30
0.0
 10
-233.8500000000002
 20
147.9182757925634
 30
0.0
 11
-233.8500000000002
 21
146.2770591021412
 31
0.0
 11
-233.4607872461174
 21
147.0860363629273
 31
0.0
 11
-233.8500000000002
 21
147.9182757925634
 31
0.0
  0
SPLINE
  5
3EF
330
1F
100
AcDbEntity
  8
1
  6
Continuous
 62
     7
100
AcDbSpline
210
0.0
220
0.0
230
1.0
 70
     8
 71
     3
 72
     9
 73
     5
 74
     3
 42
0.000000001
 43
0.0000000001
 44
0.00000001
 40
0.0
 40
0.0
 40
0.0
 40
0.0
 40
0.8977364694377914
 40
1.816490532367877
 40
1.816490532367877
 40
1.816490532367877
 40
1.816490532367877
 10
-70.95000000000013
 20
146.2770591021412
 30
0.0
 10
-71.1431224251388
 20
146.5463702852295
 30
0.0
 10
-71.53388859555375
 20
147.0912977050595
 30
0.0
 10
-71.1461250688135
 20
147.6404982673792
 30
0.0
 10
-70.95000000000013
 20
147.9182757925634
 30
0.0
 11
-70.95000000000013
 21
146.2770591021412
 31
0.0
 11
-71.33921275388289
 21
147.0860363629273
 31
0.0
 11
-70.95000000000013
 21
147.9182757925634
 31
0.0
  0
SPLINE
  5
3F0
330
1F
100
AcDbEntity
  8
1
  6
Continuous
 62
     7
100
AcDbSpline
210
0.0
220
0.0
230
1.0
 70
     8
 71
     3
 72
     9
 73
     5
 74
     3
 42
0.000000001
 43
0.0000000001
 44
0.00000001
 40
0.0
 40
0.0
 40
0.0
 40
0.0
 40
0.8977364694377657
 40
1.816490532367697
 40
1.816490532367697
 40
1.816490532367697
 40
1.816490532367697
 10
-70.95000000000013
 20
169.7770591021412
 30
0.0
 10
-71.1431224251388
 20
169.5077479190528
 30
0.0
 10
-71.53388859555373
 20
168.962820499223
 30
0.0
 10
-71.14612506881353
 20
168.4136199369034
 30
0.0
 10
-70.95000000000013
 20
168.1358424117192
 30
0.0
 11
-70.95000000000013
 21
169.7770591021412
 31
0.0
 11
-71.33921275388289
 21
168.9680818413551
 31
0.0
 11
-70.95000000000013
 21
168.1358424117192
 31
0.0
  0
SPLINE
  5
3F1
330
1F
100
AcDbEntity
  8
1
  6
Continuous
 62
     7
100
AcDbSpline
210
0.0
220
0.0
230
1.0
 70
     8
 71
     3
 72
     9
 73
     5
 74
     3
 42
0.000000001
 43
0.0000000001
 44
0.00000001
 40
0.0
 40
0.0
 40
0.0
 40
0.0
 40
0.8977364694377401
 40
1.816490532367697
 40
1.816490532367697
 40
1.816490532367697
 40
1.816490532367697
 10
-70.95000000000013
 20
113.9770591021412
 30
0.0
 10
-71.1431224251388
 20
113.7077479190528
 30
0.0
 10
-71.53388859555378
 20
113.162820499223
 30
0.0
 10
-71.14612506881349
 20
112.6136199369034
 30
0.0
 10
-70.95000000000013
 20
112.3358424117192
 30
0.0
 11
-70.95000000000013
 21
113.9770591021412
 31
0.0
 11
-71.33921275388289
 21
113.1680818413552
 31
0.0
 11
-70.95000000000013
 21
112.3358424117192
 31
0.0
  0
SPLINE
  5
3F2
330
1F
100
AcDbEntity
  8
1
  6
Continuous
 62
     7
100
AcDbSpline
210
0.0
220
0.0
230
1.0
 70
     8
 71
     3
 72
     9
 73
     5
 74
     3
 42
0.000000001
 43
0.0000000001
 44
0.00000001
 40
0.0
 40
0.0
 40
0.0
 40
0.0
 40
0.8977364694377914
 40
1.816490532367877
 40
1.816490532367877
 40
1.816490532367877
 40
1.816490532367877
 10
-70.95000000000013
 20
90.4770591021412
 30
0.0
 10
-71.1431224251388
 20
90.74637028522952
 30
0.0
 10
-71.53388859555375
 20
91.29129770505946
 30
0.0
 10
-71.1461250688135
 20
91.8404982673792
 30
0.0
 10
-70.95000000000013
 20
92.1182757925634
 30
0.0
 11
-70.95000000000013
 21
90.4770591021412
 31
0.0
 11
-71.33921275388289
 21
91.28603636292729
 31
0.0
 11
-70.95000000000013
 21
92.1182757925634
 31
0.0
  0
SPLINE
  5
3F3
330
1F
100
AcDbEntity
  8
1
  6
Continuous
 62
     7
100
AcDbSpline
210
0.0
220
0.0
230
1.0
 70
     8
 71
     3
 72
     9
 73
     5
 74
     3
 42
0.000000001
 43
0.0000000001
 44
0.00000001
 40
0.0
 40
0.0
 40
0.0
 40
0.0
 40
0.83312615129633
 40
1.664756411482993
 40
1.664756411482993
 40
1.664756411482993
 40
1.664756411482993
 10
-106.3734652360446
 20
113.5621239363767
 30
0.0
 10
-106.4432483731967
 20
113.2883313737866
 30
0.0
 10
-106.5826893313421
 20
112.7412378458131
 30
0.0
 10
-106.4431648170228
 20
112.1941869251656
 30
0.0
 10
-106.3734652360446
 20
111.9209072459545
 30
0.0
 11
-106.3734652360446
 21
113.5621239363767
 31
0.0
 11
-106.5129478793751
 21
112.74075691794
 31
0.0
 11
-106.3734652360446
 21
111.9209072459545
 31
0.0
  0
SPLINE
  5
3F4
330
1F
100
AcDbEntity
  8
1
  6
Continuous
 62
     7
100
AcDbSpline
210
0.0
220
0.0
230
1.0
 70
     8
 71
     3
 72
    45
 73
    41
 74
    39
 42
0.000000001
 43
0.0000000001
 44
0.00000001
 40
0.0
 40
0.0
 40
0.0
 40
0.0
 40
0.5277949561129519
 40
1.056286530855078
 40
2.107574562078204
 40
3.15891477280702
 40
4.1962390791149
 40
5.233668424303704
 40
6.249252745916169
 40
7.264994909730319
 40
8.253287735031174
 40
9.24178721206184
 40
10.20022177574769
 40
11.15889867274245
 40
12.08844731256553
 40
13.01824586110918
 40
13.87708386423971
 40
14.63787430890323
 40
15.37922707105345
 40
16.21789518522643
 40
17.10156076843284
 40
17.98522635163939
 40
18.82389446581259
 40
19.56524722796271
 40
20.32603767262606
 40
21.18487567575662
 40
22.11467422430033
 40
23.04422286412348
 40
24.00289976111826
 40
24.96133432480413
 40
25.94983380183482
 40
26.9381266271356
 40
27.95386879094968
 40
28.96945311256212
 40
30.00688245775095
 40
31.04420676405884
 40
32.0955469747877
 40
33.1468350060109
 40
33.67532658076259
 40
34.20312153688498
 40
34.20312153688498
 40
34.20312153688498
 40
34.20312153688498
 10
-106.3734652360484
 20
92.53321095832769
 30
0.0
 10
-106.5494077068691
 20
92.53506820988014
 30
0.0
 10
-106.9015248687749
 20
92.53878517595571
 30
0.0
 10
-107.6031371461748
 20
92.57831783378315
 30
0.0
 10
-108.4758060377262
 20
92.67323199908938
 30
0.0
 10
-109.5060383664321
 20
92.86330242297092
 30
0.0
 10
-110.5149456693088
 20
93.1277185556367
 30
0.0
 10
-111.4898791440583
 20
93.4634480104084
 30
0.0
 10
-112.4296104854307
 20
93.87006610814304
 30
0.0
 10
-113.3200659080369
 20
94.34164867827106
 30
0.0
 10
-114.1620733457723
 20
94.87853252831741
 30
0.0
 10
-114.9413218240373
 20
95.47212874386092
 30
0.0
 10
-115.6598727339557
 20
96.12338209390089
 30
0.0
 10
-116.3040680054042
 20
96.82177569960305
 30
0.0
 10
-116.8777758495073
 20
97.56739886628867
 30
0.0
 10
-117.3555178932937
 20
98.33892893234012
 30
0.0
 10
-117.75026050283
 20
99.09153135187293
 30
0.0
 10
-118.095552434746
 20
99.79967681021914
 30
0.0
 10
-118.3402417247277
 20
100.5441526874437
 30
0.0
 10
-118.4662732429625
 20
101.3583011294481
 30
0.0
 10
-118.5125537274403
 20
102.2270591021411
 30
0.0
 10
-118.4662732429624
 20
103.0958170748342
 30
0.0
 10
-118.3402417247277
 20
103.9099655168388
 30
0.0
 10
-118.095552434746
 20
104.6544413940633
 30
0.0
 10
-117.75026050283
 20
105.3625868524094
 30
0.0
 10
-117.3555178932937
 20
106.1151892719422
 30
0.0
 10
-116.8777758495074
 20
106.8867193379937
 30
0.0
 10
-116.3040680054042
 20
107.6323425046793
 30
0.0
 10
-115.6598727339557
 20
108.3307361103816
 30
0.0
 10
-114.9413218240373
 20
108.9819894604216
 30
0.0
 10
-114.1620733457723
 20
109.5755856759651
 30
0.0
 10
-113.3200659080369
 20
110.1124695260114
 30
0.0
 10
-112.4296104854307
 20
110.5840520961392
 30
0.0
 10
-111.4898791440583
 20
110.9906701938739
 30
0.0
 10
-110.5149456693088
 20
111.3263996486457
 30
0.0
 10
-109.5060383664321
 20
111.5908157813115
 30
0.0
 10
-108.4758060377262
 20
111.780886205193
 30
0.0
 10
-107.6031371461716
 20
111.8758003704994
 30
0.0
 10
-106.9015248687653
 20
111.9153330283269
 30
0.0
 10
-106.5494077068532
 20
111.9190499944022
 30
0.0
 10
-106.3734652360293
 20
111.9209072459545
 30
0.0
 11
-106.3734652360484
 21
92.53321095832769
 31
0.0
 11
-106.9011730571444
 21
92.54280147161847
 31
0.0
 11
-107.4288808782403
 21
92.57157301149036
 31
0.0
 11
-108.4739134884367
 21
92.68608663518509
 31
0.0
 11
-109.5077968208606
 21
92.87687839196406
 31
0.0
 11
-110.5111467816151
 21
93.14018538634942
 31
0.0
 11
-111.4919203384509
 21
93.47833162244208
 31
0.0
 11
-112.4238065003661
 21
93.88206383073786
 31
0.0
 11
-113.3211996634587
 21
94.35789747254594
 31
0.0
 11
-114.1541651209168
 21
94.88977269824551
 31
0.0
 11
-114.9401773831726
 21
95.48920237735507
 31
0.0
 11
-115.6497509670375
 21
96.13348658675113
 31
0.0
 11
-116.2996043024568
 21
96.8382929685641
 31
0.0
 11
-116.8647932491347
 21
97.576278150612
 31
0.0
 11
-117.3578773047207
 21
98.36456328659528
 31
0.0
 11
-117.7615313761761
 21
99.12263063632665
 31
0.0
 11
-118.0823207069313
 21
99.81248301644146
 31
0.0
 11
-118.3115024982511
 21
100.5175217564393
 31
0.0
 11
-118.4503329798689
 21
101.3446192740905
 31
0.0
 11
-118.4968605361367
 21
102.2270591021411
 31
0.0
 11
-118.4503329798688
 21
103.1094989301918
 31
0.0
 11
-118.311502498251
 21
103.9365964478432
 31
0.0
 11
-118.0823207069313
 21
104.641635187841
 31
0.0
 11
-117.7615313761761
 21
105.3314875679556
 31
0.0
 11
-117.3578773047207
 21
106.089554917687
 31
0.0
 11
-116.8647932491347
 21
106.8778400536704
 31
0.0
 11
-116.2996043024568
 21
107.6158252357183
 31
0.0
 11
-115.6497509670374
 21
108.3206316175313
 31
0.0
 11
-114.9401773831726
 21
108.9649158269274
 31
0.0
 11
-114.1541651209168
 21
109.564345506037
 31
0.0
 11
-113.3211996634587
 21
110.0962207317365
 31
0.0
 11
-112.4238065003661
 21
110.5720543735444
 31
0.0
 11
-111.491920338451
 21
110.9757865818402
 31
0.0
 11
-110.5111467816152
 21
111.313932817933
 31
0.0
 11
-109.5077968208607
 21
111.5772398123184
 31
0.0
 11
-108.4739134884367
 21
111.7680315690972
 31
0.0
 11
-107.4288808782402
 21
111.8825451927918
 31
0.0
 11
-106.9011730571347
 21
111.911316732664
 31
0.0
 11
-106.3734652360293
 21
111.9209072459545
 31
0.0
  0
SPLINE
  5
3F5
330
1F
100
AcDbEntity
  8
1
  6
Continuous
 62
     7
100
AcDbSpline
210
0.0
220
0.0
230
1.0
 70
     8
 71
     3
 72
     9
 73
     5
 74
     3
 42
0.000000001
 43
0.0000000001
 44
0.00000001
 40
0.0
 40
0.0
 40
0.0
 40
0.0
 40
0.833126151296344
 40
1.664756411482993
 40
1.664756411482993
 40
1.664756411482993
 40
1.664756411482993
 10
-106.3734652360446
 20
90.89199426790572
 30
0.0
 10
-106.4432483731967
 20
91.16578683049585
 30
0.0
 10
-106.5826893313421
 20
91.7128803584693
 30
0.0
 10
-106.4431648170228
 20
92.25993127911686
 30
0.0
 10
-106.3734652360446
 20
92.53321095832791
 30
0.0
 11
-106.3734652360446
 21
90.89199426790572
 31
0.0
 11
-106.5129478793751
 21
91.71336128634238
 31
0.0
 11
-106.3734652360446
 21
92.53321095832791
 31
0.0
  0
SPLINE
  5
3F6
330
1F
100
AcDbEntity
  8
1
  6
Continuous
 62
     7
100
AcDbSpline
210
0.0
220
0.0
230
1.0
 70
     8
 71
     3
 72
     9
 73
     5
 74
     3
 42
0.000000001
 43
0.0000000001
 44
0.00000001
 40
0.0
 40
0.0
 40
0.0
 40
0.0
 40
0.83312615129633
 40
1.664756411482993
 40
1.664756411482993
 40
1.664756411482993
 40
1.664756411482993
 10
-106.3734652360446
 20
169.3621239363767
 30
0.0
 10
-106.4432483731967
 20
169.0883313737866
 30
0.0
 10
-106.5826893313421
 20
168.5412378458131
 30
0.0
 10
-106.4431648170228
 20
167.9941869251656
 30
0.0
 10
-106.3734652360446
 20
167.7209072459545
 30
0.0
 11
-106.3734652360446
 21
169.3621239363767
 31
0.0
 11
-106.5129478793751
 21
168.54075691794
 31
0.0
 11
-106.3734652360446
 21
167.7209072459545
 31
0.0
  0
SPLINE
  5
3F7
330
1F
100
AcDbEntity
  8
1
  6
Continuous
 62
     7
100
AcDbSpline
210
0.0
220
0.0
230
1.0
 70
     8
 71
     3
 72
    25
 73
    21
 74
    19
 42
0.000000001
 43
0.0000000001
 44
0.00000001
 40
0.0
 40
0.0
 40
0.0
 40
0.0
 40
0.5840352822932835
 40
1.373532345839002
 40
2.279111858804149
 40
3.184478584124636
 40
4.114277131980509
 40
5.043825771174458
 40
6.002502667593019
 40
6.960937230767938
 40
7.949436707338394
 40
8.937729532240756
 40
9.953471695709416
 40
10.9690560170441
 40
12.0064853620298
 40
13.04380966824736
 40
14.09514987908356
 40
15.14643791098566
 40
15.67492948706819
 40
16.20272444986698
 40
16.20272444986698
 40
16.20272444986698
 40
16.20272444986698
 10
-118.4503329798689
 20
158.9094989301918
 30
0.0
 10
-118.405906792286
 20
159.0990869878425
 30
0.0
 10
-118.3014254080963
 20
159.5449595836297
 30
0.0
 10
-118.0771057871051
 20
160.2713132270967
 30
0.0
 10
-117.7772400884598
 20
161.0857663786588
 30
0.0
 10
-117.3662702684171
 20
161.9037282022723
 30
0.0
 10
-116.8770791773006
 20
162.6862469630618
 30
0.0
 10
-116.3042611724051
 20
163.4324734688554
 30
0.0
 10
-115.6598203772336
 20
164.1307006009094
 30
0.0
 10
-114.9413363487103
 20
164.7819992982239
 30
0.0
 10
-114.1620694159026
 20
165.375583000627
 30
0.0
 10
-113.3200670024057
 20
165.9124702570163
 30
0.0
 10
-112.4296101985625
 20
166.3840518904712
 30
0.0
 10
-111.4898792328059
 20
166.7906702428421
 30
0.0
 10
-110.514945655744
 20
167.1263996283109
 30
0.0
 10
-109.5060383807993
 20
167.39081578018
 30
0.0
 10
-108.4758060443675
 20
167.5808861993263
 30
0.0
 10
-107.6031371540326
 20
167.6758003668475
 30
0.0
 10
-106.9015248735852
 20
167.7153330253798
 30
0.0
 10
-106.5494077090668
 20
167.7190499943706
 30
0.0
 10
-106.3734652360293
 20
167.7209072459545
 30
0.0
 11
-118.4503329798689
 21
158.9094989301918
 31
0.0
 11
-118.3115024982511
 21
159.4767936605231
 31
0.0
 11
-118.0823207069314
 21
160.2322943700898
 31
0.0
 11
-117.7615313761762
 21
161.0791523635178
 31
0.0
 11
-117.3578773047208
 21
161.889554917687
 31
0.0
 11
-116.8647932491348
 21
162.6778400536704
 31
0.0
 11
-116.299604302457
 21
163.4158252357183
 31
0.0
 11
-115.6497509670377
 21
164.1206316175313
 31
0.0
 11
-114.9401773831728
 21
164.7649158269273
 31
0.0
 11
-114.1541651209169
 21
165.3643455060369
 31
0.0
 11
-113.3211996634589
 21
165.8962207317363
 31
0.0
 11
-112.4238065003663
 21
166.3720543735444
 31
0.0
 11
-111.4919203384513
 21
166.7757865818402
 31
0.0
 11
-110.5111467816154
 21
167.113932817933
 31
0.0
 11
-109.5077968208608
 21
167.3772398123184
 31
0.0
 11
-108.4739134884368
 21
167.5680315690973
 31
0.0
 11
-107.4288808782404
 21
167.6825451927919
 31
0.0
 11
-106.9011730571349
 21
167.7113167326641
 31
0.0
 11
-106.3734652360293
 21
167.7209072459545
 31
0.0
  0
SPLINE
  5
3F8
330
1F
100
AcDbEntity
  8
1
  6
Continuous
 62
     7
100
AcDbSpline
210
0.0
220
0.0
230
1.0
 70
     8
 71
     3
 72
    27
 73
    23
 74
    21
 42
0.000000001
 43
0.0000000001
 44
0.00000001
 40
0.0
 40
0.0
 40
0.0
 40
0.0
 40
0.5277949645338303
 40
1.056286541498729
 40
2.107574574342602
 40
3.158914785736687
 40
4.196239092402128
 40
5.233668437820262
 40
6.249252759600237
 40
7.264994923558632
 40
8.25328774899561
 40
9.241787226173265
 40
10.20022179001874
 40
11.15889868720163
 40
12.08844732723546
 40
13.01824587602825
 40
13.92361260232424
 40
14.82919211603737
 40
15.66829744935921
 40
16.40391238890046
 40
17.13273797118255
 40
17.96477941939473
 40
17.96477941939473
 40
17.96477941939473
 40
17.96477941939473
 10
-106.3734652360484
 20
148.3332109583277
 30
0.0
 10
-106.5494077096629
 20
148.3350682099183
 30
0.0
 10
-106.9015248750526
 20
148.3387851786933
 30
0.0
 10
-107.6031371567351
 20
148.3783178369104
 30
0.0
 10
-108.4758060476854
 20
148.4732320042732
 30
0.0
 10
-109.5060383856728
 20
148.6633024230679
 30
0.0
 10
-110.5149456579109
 20
148.9277185758819
 30
0.0
 10
-111.4898792472668
 20
149.2634479578838
 30
0.0
 10
-112.4296101701529
 20
149.670066323265
 30
0.0
 10
-113.3200671339649
 20
150.141647909431
 30
0.0
 10
-114.1620689679973
 20
150.6785353386645
 30
0.0
 10
-114.9413380318356
 20
151.2721184073555
 30
0.0
 10
-115.6598143399875
 20
151.923419402818
 30
0.0
 10
-116.3042834797909
 20
152.6216381002506
 30
0.0
 10
-116.8769987596572
 20
153.3678951776025
 30
0.0
 10
-117.3665674959343
 20
154.150301552886
 30
0.0
 10
-117.7761630858578
 20
154.9686723454023
 30
0.0
 10
-118.0867255706613
 20
155.7971817648003
 30
0.0
 10
-118.3130442344158
 20
156.5929866849499
 30
0.0
 10
-118.4666417706295
 20
157.3466766403944
 30
0.0
 10
-118.5155973406345
 20
158.1137321309731
 30
0.0
 10
-118.4730261437437
 20
158.632801778856
 30
0.0
 10
-118.4503329798689
 20
158.9094989301918
 30
0.0
 11
-106.3734652360484
 21
148.3332109583277
 31
0.0
 11
-106.9011730571445
 21
148.3428014716185
 31
0.0
 11
-107.4288808782404
 21
148.3715730114904
 31
0.0
 11
-108.4739134884368
 21
148.4860866351851
 31
0.0
 11
-109.5077968208607
 21
148.6768783919641
 31
0.0
 11
-110.5111467816152
 21
148.9401853863494
 31
0.0
 11
-111.4919203384511
 21
149.2783316224421
 31
0.0
 11
-112.4238065003663
 21
149.6820638307379
 31
0.0
 11
-113.3211996634589
 21
150.157897472546
 31
0.0
 11
-114.1541651209169
 21
150.6897726982455
 31
0.0
 11
-114.9401773831728
 21
151.2892023773551
 31
0.0
 11
-115.6497509670377
 21
151.9334865867512
 31
0.0
 11
-116.299604302457
 21
152.6382929685641
 31
0.0
 11
-116.8647932491348
 21
153.376278150612
 31
0.0
 11
-117.3578773047208
 21
154.1645632865953
 31
0.0
 11
-117.7615313761762
 21
154.9749658407645
 31
0.0
 11
-118.0823207069314
 21
155.8218238341927
 31
0.0
 11
-118.3115024982512
 21
156.6290248424814
 31
0.0
 11
-118.4503329798691
 21
157.3514204689786
 31
0.0
 11
-118.4968605361369
 21
158.0787594008632
 31
0.0
 11
-118.4503329798689
 21
158.9094989301918
 31
0.0
  0
SPLINE
  5
3F9
330
1F
100
AcDbEntity
  8
1
  6
Continuous
 62
     7
100
AcDbSpline
210
0.0
220
0.0
230
1.0
 70
     8
 71
     3
 72
     9
 73
     5
 74
     3
 42
0.000000001
 43
0.0000000001
 44
0.00000001
 40
0.0
 40
0.0
 40
0.0
 40
0.0
 40
0.8331261512963021
 40
1.664756411482797
 40
1.664756411482797
 40
1.664756411482797
 40
1.664756411482797
 10
-106.3734652360446
 20
146.6919942679057
 30
0.0
 10
-106.4432483731968
 20
146.9657868304958
 30
0.0
 10
-106.582689331342
 20
147.5128803584692
 30
0.0
 10
-106.4431648170228
 20
148.0599312791167
 30
0.0
 10
-106.3734652360446
 20
148.3332109583277
 30
0.0
 11
-106.3734652360446
 21
146.6919942679057
 31
0.0
 11
-106.5129478793751
 21
147.5133612863423
 31
0.0
 11
-106.3734652360446
 21
148.3332109583277
 31
0.0
  0
ARC
  5
3FA
330
1F
100
AcDbEntity
  8
1
  6
Continuous
 62
     7
100
AcDbCircle
 10
-162.9500000000002
 20
94.7270591021412
 30
0.0
 40
3.5
100
AcDbArc
 50
270.0
 51
0.0
  0
ARC
  5
3FB
330
1F
100
AcDbEntity
  8
1
  6
Continuous
 62
     7
100
AcDbCircle
 10
-162.9500000000002
 20
109.7270591021412
 30
0.0
 40
3.5
100
AcDbArc
 50
0.0
 51
90.0
  0
ARC
  5
3FC
102
{ACAD_REACTORS
330
488
102
}
330
1F
100
AcDbEntity
  8
1
  6
Continuous
 62
     7
100
AcDbCircle
 10
-282.3000000000002
 20
168.0770591021411
 30
0.0
 40
2.0
100
AcDbArc
 50
90.0
 51
180.0
  0
ARC
  5
3FD
102
{ACAD_REACTORS
330
488
102
}
330
1F
100
AcDbEntity
  8
1
  6
Continuous
 62
     7
100
AcDbCircle
 10
-282.3000000000002
 20
147.9770591021413
 30
0.0
 40
2.0
100
AcDbArc
 50
180.0
 51
270.0
  0
ARC
  5
3FE
102
{ACAD_REACTORS
330
488
102
}
330
1F
100
AcDbEntity
  8
1
  6
Continuous
 62
     7
100
AcDbCircle
 10
-262.2000000000001
 20
147.9770591021413
 30
0.0
 40
2.0
100
AcDbArc
 50
270.0
 51
0.0
  0
ARC
  5
3FF
102
{ACAD_REACTORS
330
488
102
}
330
1F
100
AcDbEntity
  8
1
  6
Continuous
 62
     7
100
AcDbCircle
 10
-262.2000000000001
 20
168.0770591021411
 30
0.0
 40
2.0
100
AcDbArc
 50
0.0
 51
90.0
  0
ARC
  5
400
330
1F
100
AcDbEntity
  8
1
  6
Continuous
 62
     7
100
AcDbCircle
 10
-262.5000000000002
 20
167.7770591021412
 30
0.0
 40
3.5
100
AcDbArc
 50
0.0
 51
90.0
  0
ARC
  5
401
330
1F
100
AcDbEntity
  8
1
  6
Continuous
 62
     7
100
AcDbCircle
 10
-282.0000000000002
 20
167.7770591021412
 30
0.0
 40
3.5
100
AcDbArc
 50
90.0
 51
180.0
  0
ARC
  5
402
330
1F
100
AcDbEntity
  8
1
  6
Continuous
 62
     7
100
AcDbCircle
 10
-282.0000000000002
 20
148.2770591021412
 30
0.0
 40
3.5
100
AcDbArc
 50
180.0
 51
270.0
  0
ARC
  5
403
330
1F
100
AcDbEntity
  8
1
  6
Continuous
 62
     7
100
AcDbCircle
 10
-262.5000000000002
 20
148.2770591021412
 30
0.0
 40
3.5
100
AcDbArc
 50
270.0
 51
0.0
  0
ARC
  5
404
330
1F
100
AcDbEntity
  8
1
  6
Continuous
 62
     7
100
AcDbCircle
 10
-162.9500000000002
 20
165.5270591021414
 30
0.0
 40
3.5
100
AcDbArc
 50
0.0
 51
90.0
  0
ARC
  5
405
330
1F
100
AcDbEntity
  8
1
  6
Continuous
 62
     7
100
AcDbCircle
 10
-162.9500000000002
 20
150.5270591021414
 30
0.0
 40
3.5
100
AcDbArc
 50
270.0
 51
0.0
  0
ARC
  5
406
330
1F
100
AcDbEntity
  8
0
  6
Continuous
 62
     2
100
AcDbCircle
 10
-218.8500000000003
 20
107.2265155429317
 30
0.0
 40
0.0999913502286979
100
AcDbArc
 50
29.98163936863774
 51
150.0183606313541
  0
ARC
  5
407
330
1F
100
AcDbEntity
  8
0
  6
Continuous
 62
     2
100
AcDbCircle
 10
-220.30337437167
 20
100.6271974984783
 30
0.0
 40
0.1999827004579089
100
AcDbArc
 50
90.0
 51
209.9816393688927
  0
ARC
  5
408
330
1F
100
AcDbEntity
  8
0
  6
Continuous
 62
     2
100
AcDbCircle
 10
-217.3966256283308
 20
100.6271974984783
 30
0.0
 40
0.1999827004580407
100
AcDbArc
 50
330.0183606311398
 51
90.0
  0
ARC
  5
409
330
1F
100
AcDbEntity
  8
0
  6
Continuous
 62
     2
100
AcDbCircle
 10
-218.8500000000003
 20
97.22760266135072
 30
0.0
 40
0.0999913502289219
100
AcDbArc
 50
209.9816393688927
 51
330.0183606311154
  0
ARC
  5
40A
330
1F
100
AcDbEntity
  8
0
  6
Continuous
 62
     2
100
AcDbCircle
 10
-220.1878715783413
 20
103.6269380053462
 30
0.0
 40
0.3999654009157894
100
AcDbArc
 50
90.0
 51
150.0183606311256
  0
ARC
  5
40B
330
1F
100
AcDbEntity
  8
0
  6
Continuous
 62
     2
100
AcDbCircle
 10
-218.6500172995426
 20
102.2270591021414
 30
0.0
 40
0.0999913502283255
100
AcDbArc
 50
120.0000000001493
 51
240.0000000000787
  0
ARC
  5
40C
330
1F
100
AcDbEntity
  8
1
  6
Continuous
 62
     2
100
AcDbCircle
 10
-271.4500000000002
 20
150.4253090540912
 30
0.0
 40
0.0999999999999659
100
AcDbArc
 50
180.0
 51
299.9816393688081
  0
ARC
  5
40D
330
1F
100
AcDbEntity
  8
1
  6
Continuous
 62
     2
100
AcDbCircle
 10
-271.4500000000002
 20
151.8788091501916
 30
0.0
 40
0.0999999999998863
100
AcDbArc
 50
60.01836063107798
 51
180.0
  0
ARC
  5
40E
330
1F
100
AcDbEntity
  8
1
  6
Continuous
 62
     2
100
AcDbCircle
 10
-269.7500555401322
 20
151.1520591021412
 30
0.0
 40
0.0499999999997774
100
AcDbArc
 50
299.9816393689188
 51
60.01836063130909
  0
ARC
  5
40F
330
1F
100
AcDbEntity
  8
1
  6
Continuous
 62
     2
100
AcDbCircle
 10
-274.7499444598682
 20
151.1520591021412
 30
0.0
 40
0.0500000000001789
100
AcDbArc
 50
119.9816393688038
 51
240.0183606309683
  0
ARC
  5
410
330
1F
100
AcDbEntity
  8
1
  6
Continuous
 62
     2
100
AcDbCircle
 10
-272.9500000000002
 20
150.4830654465511
 30
0.0
 40
0.1999999999999886
100
AcDbArc
 50
180.0
 51
240.0183606311531
  0
ARC
  5
411
330
1F
100
AcDbEntity
  8
1
  6
Continuous
 62
     2
100
AcDbCircle
 10
-272.2500000000002
 20
151.2520591021415
 30
0.0
 40
0.0500000000003187
100
AcDbArc
 50
210.0000000000223
 51
329.9999999997822
  0
ARC
  5
412
330
1F
100
AcDbEntity
  8
1
  6
Continuous
 62
     2
100
AcDbCircle
 10
-33.2
 20
151.2520591021415
 30
0.0
 40
0.0500000000003187
100
AcDbArc
 50
210.0000000000223
 51
329.9999999997497
  0
ARC
  5
413
330
1F
100
AcDbEntity
  8
1
  6
Continuous
 62
     2
100
AcDbCircle
 10
-33.89999999999999
 20
150.4830654465511
 30
0.0
 40
0.1999999999999886
100
AcDbArc
 50
180.0
 51
240.018360631139
  0
ARC
  5
414
330
1F
100
AcDbEntity
  8
1
  6
Continuous
 62
     2
100
AcDbCircle
 10
-35.69994445986801
 20
151.1520591021412
 30
0.0
 40
0.050000000000147
100
AcDbArc
 50
119.9816393687403
 51
240.0183606310319
  0
ARC
  5
415
330
1F
100
AcDbEntity
  8
1
  6
Continuous
 62
     2
100
AcDbCircle
 10
-30.700055540132
 20
151.1520591021412
 30
0.0
 40
0.0499999999998058
100
AcDbArc
 50
299.9816393689752
 51
60.01836063125266
  0
ARC
  5
416
330
1F
100
AcDbEntity
  8
1
  6
Continuous
 62
     2
100
AcDbCircle
 10
-32.39999999999999
 20
151.8788091501916
 30
0.0
 40
0.0999999999998863
100
AcDbArc
 50
60.01836063107798
 51
180.0
  0
ARC
  5
417
330
1F
100
AcDbEntity
  8
1
  6
Continuous
 62
     2
100
AcDbCircle
 10
-32.39999999999999
 20
150.4253090540912
 30
0.0
 40
0.1000000000000156
100
AcDbArc
 50
180.0
 51
299.9816393688081
  0
ARC
  5
418
330
1F
100
AcDbEntity
  8
1
  6
Continuous
 62
     7
100
AcDbCircle
 10
-23.45
 20
148.2770591021412
 30
0.0
 40
3.5
100
AcDbArc
 50
270.0
 51
0.0
  0
ARC
  5
419
330
1F
100
AcDbEntity
  8
1
  6
Continuous
 62
     7
100
AcDbCircle
 10
-42.95
 20
148.2770591021412
 30
0.0
 40
3.5
100
AcDbArc
 50
180.0
 51
270.0
  0
ARC
  5
41A
330
1F
100
AcDbEntity
  8
1
  6
Continuous
 62
     7
100
AcDbCircle
 10
-42.95
 20
167.7770591021412
 30
0.0
 40
3.5
100
AcDbArc
 50
90.0
 51
180.0
  0
ARC
  5
41B
330
1F
100
AcDbEntity
  8
1
  6
Continuous
 62
     7
100
AcDbCircle
 10
-23.45
 20
167.7770591021412
 30
0.0
 40
3.5
100
AcDbArc
 50
0.0
 51
90.0
  0
ARC
  5
41C
102
{ACAD_REACTORS
330
489
102
}
330
1F
100
AcDbEntity
  8
1
  6
Continuous
 62
     7
100
AcDbCircle
 10
-23.14999999999982
 20
168.0770591021411
 30
0.0
 40
2.0
100
AcDbArc
 50
0.0
 51
90.0
  0
ARC
  5
41D
102
{ACAD_REACTORS
330
489
102
}
330
1F
100
AcDbEntity
  8
1
  6
Continuous
 62
     7
100
AcDbCircle
 10
-23.14999999999982
 20
147.9770591021413
 30
0.0
 40
2.0
100
AcDbArc
 50
270.0
 51
0.0
  0
ARC
  5
41E
102
{ACAD_REACTORS
330
489
102
}
330
1F
100
AcDbEntity
  8
1
  6
Continuous
 62
     7
100
AcDbCircle
 10
-43.24999999999996
 20
147.9770591021413
 30
0.0
 40
2.0
100
AcDbArc
 50
180.0
 51
270.0
  0
ARC
  5
41F
102
{ACAD_REACTORS
330
489
102
}
330
1F
100
AcDbEntity
  8
1
  6
Continuous
 62
     7
100
AcDbCircle
 10
-43.24999999999996
 20
168.0770591021411
 30
0.0
 40
2.0
100
AcDbArc
 50
90.0
 51
180.0
  0
ARC
  5
420
330
1F
100
AcDbEntity
  8
0
  6
Continuous
 62
     2
100
AcDbCircle
 10
-86.14998270045774
 20
102.2270591021414
 30
0.0
 40
0.0999913502290289
100
AcDbArc
 50
299.9999999999354
 51
59.99999999983661
  0
ARC
  5
421
330
1F
100
AcDbEntity
  8
0
  6
Continuous
 62
     2
100
AcDbCircle
 10
-84.61212842165904
 20
103.6269380053462
 30
0.0
 40
0.3999654009158845
100
AcDbArc
 50
29.98163936887646
 51
90.0
  0
ARC
  5
422
330
1F
100
AcDbEntity
  8
0
  6
Continuous
 62
     2
100
AcDbCircle
 10
-85.95000000000002
 20
97.22760266135072
 30
0.0
 40
0.0999913502289219
100
AcDbArc
 50
209.9816393688927
 51
330.0183606311072
  0
ARC
  5
423
330
1F
100
AcDbEntity
  8
0
  6
Continuous
 62
     2
100
AcDbCircle
 10
-87.40337437166951
 20
100.6271974984783
 30
0.0
 40
0.1999827004579089
100
AcDbArc
 50
90.0
 51
209.9816393688602
  0
ARC
  5
424
330
1F
100
AcDbEntity
  8
0
  6
Continuous
 62
     2
100
AcDbCircle
 10
-84.49662562833035
 20
100.6271974984783
 30
0.0
 40
0.199982700457893
100
AcDbArc
 50
330.0183606311154
 51
90.0
  0
ARC
  5
425
330
1F
100
AcDbEntity
  8
0
  6
Continuous
 62
     2
100
AcDbCircle
 10
-85.95000000000002
 20
107.2265155429317
 30
0.0
 40
0.0999913502286733
100
AcDbArc
 50
29.98163936864588
 51
150.0183606313541
  0
ARC
  5
426
330
1F
100
AcDbEntity
  8
1
  6
Continuous
 62
     7
100
AcDbCircle
 10
-141.8500000000001
 20
150.5270591021414
 30
0.0
 40
3.5
100
AcDbArc
 50
180.0
 51
270.0
  0
ARC
  5
427
330
1F
100
AcDbEntity
  8
1
  6
Continuous
 62
     7
100
AcDbCircle
 10
-141.8500000000001
 20
165.5270591021414
 30
0.0
 40
3.5
100
AcDbArc
 50
90.0
 51
180.0
  0
ARC
  5
428
330
1F
100
AcDbEntity
  8
1
  6
Continuous
 62
     7
100
AcDbCircle
 10
-141.8500000000001
 20
109.7270591021412
 30
0.0
 40
3.5
100
AcDbArc
 50
90.0
 51
180.0
  0
ARC
  5
429
330
1F
100
AcDbEntity
  8
1
  6
Continuous
 62
     7
100
AcDbCircle
 10
-141.8500000000001
 20
94.7270591021412
 30
0.0
 40
3.5
100
AcDbArc
 50
180.0
 51
270.0
  0
MTEXT
  5
42A
330
1F
100
AcDbEntity
  8
1
 62
     7
100
AcDbMText
 10
-177.4
 20
12.49999999999987
 30
0.0
 40
3.0
 41
0.0
 71
     4
 72
     1
  1
08/02/12
  7
CONVERTER_11
 73
     1
 44
1.32052821128451
  0
MTEXT
  5
42B
330
1F
100
AcDbEntity
  8
1
 62
     7
100
AcDbMText
 10
-177.4
 20
7.49999999999987
 30
0.0
 40
3.0
 41
0.0
 71
     4
 72
     1
  1
T.Tedeschi
  7
CONVERTER_11
 73
     1
 44
1.32052821128451
  0
MTEXT
  5
42C
330
1F
100
AcDbEntity
  8
1
 62
     7
100
AcDbMText
 10
-152.7236993112573
 20
12.5
 30
0.0
 40
4.5
 41
0.0
 71
     4
 72
     1
  1
CWK  xx  J2M8\P2 male connector RJ45 8P + CKG 03 VN
  7
CONVERTER_11
 73
     1
 44
0.90036014405762
  0
MTEXT
  5
42D
330
1F
100
AcDbEntity
  8
1
 62
     7
100
AcDbMText
 10
-40.32369931125732
 20
10.06063942075605
 30
0.0
 40
4.5
 41
0.0
 71
     5
 72
     1
  1
1:1
  7
CONVERTER_11
 73
     1
 44
1.32052821128451
  0
MTEXT
  5
42F
330
1F
100
AcDbEntity
  8
1
 62
     4
100
AcDbMText
 10
-118.7797600387068
 20
33.5
 30
0.0
 40
2.5
 41
0.0
 71
     4
 72
     1
  1
J2M8
  7
CONVERTER_13
 73
     1
 44
1.32052821128451
  0
MTEXT
  5
430
330
1F
100
AcDbEntity
  8
1
 62
     4
100
AcDbMText
 10
-118.7797600387068
 20
40.5
 30
0.0
 40
2.5
 41
0.0
 71
     4
 72
     1
  1
J2M8
  7
CONVERTER_13
 73
     1
 44
1.32052821128451
  0
MTEXT
  5
431
330
1F
100
AcDbEntity
  8
1
 62
     4
100
AcDbMText
 10
-118.7797600387068
 20
47.49999999999997
 30
0.0
 40
2.5
 41
0.0
 71
     4
 72
     1
  1
J2M8
  7
CONVERTER_13
 73
     1
 44
1.32052821128451
  0
MTEXT
  5
432
330
1F
100
AcDbEntity
  8
1
 62
     4
100
AcDbMText
 10
-97.24807142681755
 20
40.5
 30
0.0
 40
2.5
 41
0.0
 71
     6
 72
     1
  1
5
  7
CONVERTER_13
 73
     1
 44
1.32052821128451
  0
MTEXT
  5
433
330
1F
100
AcDbEntity
  8
1
 62
     4
100
AcDbMText
 10
-97.24807142681755
 20
47.49999999999997
 30
0.0
 40
2.5
 41
0.0
 71
     6
 72
     1
  1
2
  7
CONVERTER_13
 73
     1
 44
1.32052821128451
  0
MTEXT
  5
434
330
1F
100
AcDbEntity
  8
1
 62
     4
100
AcDbMText
 10
-98.00000000000037
 20
54.49999999999997
 30
0.0
 40
2.5
 41
0.0
 71
     5
 72
     1
  1
L(m)
  7
CONVERTER_13
 73
     1
 44
1.32052821128451
  0
MTEXT
  5
435
330
1F
100
AcDbEntity
  8
1
 62
     4
100
AcDbMText
 10
-133.4797600387068
 20
47.49999999999997
 30
0.0
 40
2.5
 41
0.0
 71
     4
 72
     1
  1
CWK
  7
CONVERTER_13
 73
     1
 44
1.32052821128451
  0
MTEXT
  5
436
330
1F
100
AcDbEntity
  8
1
 62
     4
100
AcDbMText
 10
-133.4797600387068
 20
54.49999999999997
 30
0.0
 40
2.5
 41
0.0
 71
     4
 72
     1
  1
code
  7
CONVERTER_13
 73
     1
 44
1.32052821128451
  0
MTEXT
  5
438
330
1F
100
AcDbEntity
  8
1
 62
     4
100
AcDbMText
 10
-87.70000000000024
 20
40.5
 30
0.0
 40
2.5
 41
0.0
 71
     4
 72
     1
  1
RJ45 male connectors with\P8 signal contacts\PRJ cable 4x2 AWG26/7  green\Pinsulating hood top entry with cable gland PG11
  7
CONVERTER_14
 73
     1
 44
1.20048019207683
  0
MTEXT
  5
43A
330
1F
100
AcDbEntity
  8
1
 62
     4
100
AcDbMText
 10
-87.70000000000024
 20
54.49999999999997
 30
0.0
 40
2.5
 41
0.0
 71
     4
 72
     1
  1
parts
  7
CONVERTER_15
 73
     1
 44
1.32052821128451
  0
MTEXT
  5
43B
330
1F
100
AcDbEntity
  8
1
 62
     4
100
AcDbMText
 10
-133.4797600387068
 20
40.5
 30
0.0
 40
2.5
 41
0.0
 71
     4
 72
     1
  1
CWK
  7
CONVERTER_13
 73
     1
 44
1.32052821128451
  0
MTEXT
  5
43C
330
1F
100
AcDbEntity
  8
1
 62
     4
100
AcDbMText
 10
-133.4797600387068
 20
33.5
 30
0.0
 40
2.5
 41
0.0
 71
     4
 72
     1
  1
CWK
  7
CONVERTER_13
 73
     1
 44
1.32052821128451
  0
MTEXT
  5
43D
330
1F
100
AcDbEntity
  8
1
 62
     4
100
AcDbMText
 10
-97.24807142681755
 20
33.5
 30
0.0
 40
2.5
 41
0.0
 71
     6
 72
     1
  1
10
  7
CONVERTER_13
 73
     1
 44
1.32052821128451
  0
MTEXT
  5
43E
330
1F
100
AcDbEntity
  8
1
 62
     4
100
AcDbMText
 10
-121.0400010978608
 20
47.49999999999997
 30
0.0
 40
2.5
 41
0.0
 71
     6
 72
     1
  1
2
  7
CONVERTER_13
 73
     1
 44
1.32052821128451
  0
MTEXT
  5
43F
330
1F
100
AcDbEntity
  8
1
 62
     4
100
AcDbMText
 10
-121.0400010978608
 20
40.5
 30
0.0
 40
2.5
 41
0.0
 71
     6
 72
     1
  1
5
  7
CONVERTER_13
 73
     1
 44
1.32052821128451
  0
MTEXT
  5
440
330
1F
100
AcDbEntity
  8
1
 62
     4
100
AcDbMText
 10
-121.0400010978608
 20
33.5
 30
0.0
 40
2.5
 41
0.0
 71
     6
 72
     1
  1
10
  7
CONVERTER_13
 73
     1
 44
1.32052821128451
  0
MTEXT
  5
442
330
1F
100
AcDbEntity
  8
Symbole_TC_020513_DIN_
 62
     7
100
AcDbMText
 10
-264.0000000000002
 20
57.30239925738589
 30
0.0
 40
3.49999994039535
 41
0.0
 71
     8
 72
     1
  1
Wiring Diagram
  7
CONVERTER_16
 73
     1
 44
1.0
  0
MTEXT
  5
443
330
1F
100
AcDbEntity
  8
1
 62
     4
100
AcDbMText
 10
-279.1074961291462
 20
50.60279147058412
 30
0.0
 40
2.0
 41
0.0
 71
     2
 72
     1
  1
 1\P 2\P 3\P 4\P 5\P 6\P 7\P 8\PVS
  7
CONVERTER_13
 73
     1
 44
1.32052821128451
  0
MTEXT
  5
444
330
1F
100
AcDbEntity
  8
1
 62
     4
100
AcDbMText
 10
-247.6925038708541
 20
50.60279147058412
 30
0.0
 40
2.0
 41
0.0
 71
     2
 72
     1
  1
1\P2\P3\P4\P5\P6\P7\P8\PVS
  7
CONVERTER_13
 73
     1
 44
1.32052821128451
  0
DIMENSION
  5
450
330
1F
100
AcDbEntity
  8
1
100
AcDbDimension
  2
*D2
 10
-9.9791007014828
 20
171.2770591021412
 30
0.0
 11
-9.9791007014828
 21
158.0270591021412
 31
0.0
 70
    32
  1
<>
 71
     5
 42
-1.0
 53
0.00013888888889
  3
ME10_DIM_10
100
AcDbAlignedDimension
 13
-23.45
 23
144.7770591021412
 33
0.0
 14
-23.45
 24
171.2770591021412
 34
0.0
 50
90.0
100
AcDbRotatedDimension
  0
DIMENSION
  5
45B
330
1F
100
AcDbEntity
  8
1
100
AcDbDimension
  2
*D3
 10
-46.45
 20
177.864683200685
 30
0.0
 11
-33.2
 21
181.514683200685
 31
0.0
 70
    32
  1
<>
 71
     5
 42
-1.0
 53
0.00013888888889
  3
ME10_DIM_11
100
AcDbAlignedDimension
 13
-19.95
 23
167.7770591021412
 33
0.0
 14
-46.45
 24
167.7770591021412
 34
0.0
100
AcDbRotatedDimension
  0
DIMENSION
  5
466
330
1F
100
AcDbEntity
  8
1
100
AcDbDimension
  2
*D4
 10
-289.7500000000002
 20
178.014683200685
 30
0.0
 11
-272.2500000000002
 21
181.514683200685
 31
0.0
 70
    32
  1
<>
 71
     5
 42
-1.0
 53
0.00013888888889
  3
ME10_DIM_12
100
AcDbAlignedDimension
 13
-254.7500000000002
 23
159.5270591021412
 33
0.0
 14
-289.7500000000002
 24
159.5270591021412
 34
0.0
100
AcDbRotatedDimension
  0
DIMENSION
  5
471
330
1F
100
AcDbEntity
  8
1
100
AcDbDimension
  2
*D5
 10
-251.7500000000004
 20
126.509583661579
 30
0.0
 11
-205.6000000000003
 21
130.009583661579
 31
0.0
 70
    32
  1
93 max.
 71
     5
 42
-1.0
 53
0.00013888888889
  3
ME10_DIM_13
100
AcDbAlignedDimension
 13
-159.4500000000002
 23
109.7270591021412
 33
0.0
 14
-251.7500000000003
 24
105.2270591021412
 34
0.0
100
AcDbRotatedDimension
  0
DIMENSION
  5
47C
330
1F
100
AcDbEntity
  8
1
100
AcDbDimension
  2
*D6
 10
-145.3500000000001
 20
126.509583661579
 30
0.0
 11
-99.20000000000005
 21
130.009583661579
 31
0.0
 70
    32
  1
93 max.
 71
     5
 42
-1.0
 53
0.00013888888889
  3
ME10_DIM_14
100
AcDbAlignedDimension
 13
-53.04999999999998
 23
105.2270591021412
 33
0.0
 14
-145.3500000000001
 24
109.7270591021412
 34
0.0
100
AcDbRotatedDimension
  0
DIMENSION
  5
487
330
1F
100
AcDbEntity
  8
1
100
AcDbDimension
  2
*D7
 10
-251.7500000000004
 20
73.4602051798847
 30
0.0
 11
-152.4000000000002
 21
76.9602051798847
 31
0.0
 70
    32
  1
L(m)
 71
     5
 42
-1.0
 53
0.00013888888889
  3
ME10_DIM_15
100
AcDbAlignedDimension
 13
-53.04999999999998
 23
99.2270591021412
 33
0.0
 14
-251.7500000000003
 24
99.2270591021412
 34
0.0
100
AcDbRotatedDimension
  0
HATCH
  5
488
330
1F
100
AcDbEntity
  8
1
  6
Continuous
 62
     2
100
AcDbHatch
 10
0.0
 20
0.0
 30
0.0
210
0.0
220
0.0
230
1.0
  2
SOLID
 70
     1
 71
     1
 91
        2
 92
        1
 93
        8
 72
     2
 10
-262.2000000000001
 20
168.0770591021411
 40
2.0
 50
0.0
 51
90.0
 73
     1
 72
     1
 10
-262.2000000000001
 20
170.0770591021411
 11
-282.3000000000002
 21
170.0770591021411
 72
     2
 10
-282.3000000000002
 20
168.0770591021411
 40
2.0
 50
90.0
 51
180.0
 73
     1
 72
     1
 10
-284.3000000000002
 20
168.0770591021411
 11
-284.3000000000002
 21
147.9770591021413
 72
     2
 10
-282.3000000000002
 20
147.9770591021413
 40
2.0
 50
180.0
 51
270.0
 73
     1
 72
     1
 10
-282.3000000000002
 20
145.9770591021413
 11
-262.2000000000001
 21
145.9770591021413
 72
     2
 10
-262.2000000000001
 20
147.9770591021413
 40
2.0
 50
270.0
 51
360.0
 73
     1
 72
     1
 10
-260.2000000000001
 20
147.9770591021413
 11
-260.2000000000001
 21
168.0770591021411
 97
        8
330
3FF
330
E7
330
3FC
330
E5
330
3FD
330
E8
330
3FE
330
E6
 92
       16
 93
        8
 72
     2
 10
-264.1500000000002
 20
149.7270591021413
 40
2.400000000000205
 50
270.0
 51
360.0
 73
     1
 72
     1
 10
-261.7500000000002
 20
149.7270591021413
 11
-261.7500000000002
 21
165.9270591021414
 72
     2
 10
-264.1500000000002
 20
165.9270591021414
 40
2.399999999999977
 50
0.0
 51
90.0
 73
     1
 72
     1
 10
-264.1500000000002
 20
168.327059102141
 11
-280.3500000000002
 21
168.327059102141
 72
     2
 10
-280.3500000000002
 20
165.9270591021414
 40
2.399999999999579
 50
90.0
 51
180.0
 73
     1
 72
     1
 10
-282.7500000000002
 20
165.9270591021414
 11
-282.7500000000002
 21
149.7270591021413
 72
     2
 10
-280.3500000000002
 20
149.7270591021413
 40
2.400000000000034
 50
180.0
 51
270.0
 73
     1
 72
     1
 10
-280.3500000000002
 20
147.3270591021411
 11
-264.1500000000002
 21
147.3270591021411
 97
        8
330
38F
330
1DA
330
392
330
1DF
330
39C
330
1EC
330
39B
330
1E4
 75
     0
 76
     1
 98
        1
 10
0.0
 20
0.0
  0
HATCH
  5
489
330
1F
100
AcDbEntity
  8
1
  6
Continuous
 62
     2
100
AcDbHatch
 10
0.0
 20
0.0
 30
0.0
210
0.0
220
0.0
230
1.0
  2
SOLID
 70
     1
 71
     1
 91
        2
 92
        1
 93
        8
 72
     2
 10
-23.14999999999982
 20
168.0770591021411
 40
2.0
 50
0.0
 51
90.0
 73
     1
 72
     1
 10
-23.14999999999982
 20
170.0770591021411
 11
-43.24999999999996
 21
170.0770591021411
 72
     2
 10
-43.24999999999996
 20
168.0770591021411
 40
2.0
 50
90.0
 51
180.0
 73
     1
 72
     1
 10
-45.24999999999996
 20
168.0770591021411
 11
-45.24999999999996
 21
147.9770591021413
 72
     2
 10
-43.24999999999996
 20
147.9770591021413
 40
2.0
 50
180.0
 51
270.0
 73
     1
 72
     1
 10
-43.24999999999996
 20
145.9770591021413
 11
-23.14999999999982
 21
145.9770591021413
 72
     2
 10
-23.14999999999982
 20
147.9770591021413
 40
2.0
 50
270.0
 51
360.0
 73
     1
 72
     1
 10
-21.14999999999982
 20
147.9770591021413
 11
-21.14999999999982
 21
168.0770591021411
 97
        8
330
41C
330
29A
330
41F
330
29C
330
41E
330
299
330
41D
330
29B
 92
       16
 93
        8
 72
     2
 10
-25.09999999999998
 20
149.7270591021413
 40
2.400000000000205
 50
270.0
 51
360.0
 73
     1
 72
     1
 10
-22.7
 20
149.7270591021413
 11
-22.7
 21
165.9270591021414
 72
     2
 10
-25.09999999999998
 20
165.9270591021414
 40
2.399999999999981
 50
0.0
 51
90.0
 73
     1
 72
     1
 10
-25.09999999999998
 20
168.327059102141
 11
-41.29999999999997
 21
168.327059102141
 72
     2
 10
-41.29999999999997
 20
165.9270591021414
 40
2.399999999999579
 50
90.0
 51
180.0
 73
     1
 72
     1
 10
-43.7
 20
165.9270591021414
 11
-43.7
 21
149.7270591021413
 72
     2
 10
-41.29999999999997
 20
149.7270591021413
 40
2.400000000000034
 50
180.0
 51
270.0
 73
     1
 72
     1
 10
-41.29999999999997
 20
147.3270591021411
 11
-25.09999999999998
 21
147.3270591021411
 97
        8
330
3C0
330
247
330
3BD
330
242
330
3B3
330
235
330
3B4
330
23D
 75
     0
 76
     1
 98
        1
 10
0.0
 20
0.0
  0
ENDSEC
  0
SECTION
  2
OBJECTS
  0
DICTIONARY
  5
C
330
0
100
AcDbDictionary
281
     1
  3
ACAD_GROUP
350
D
  3
ACAD_LAYOUT
350
1A
  3
ACAD_MATERIAL
350
3B
  3
ACAD_MLEADERSTYLE
350
48C
  3
ACAD_MLINESTYLE
350
17
  3
ACAD_PLOTSETTINGS
350
19
  3
ACAD_PLOTSTYLENAME
350
E
  3
ACAD_VISUALSTYLE
350
2A
  3
AcDbVariableDictionary
350
48A
  0
DICTIONARY
  5
D
102
{ACAD_REACTORS
330
C
102
}
330
C
100
AcDbDictionary
281
     1
  0
DICTIONARY
  5
1A
102
{ACAD_REACTORS
330
C
102
}
330
C
100
AcDbDictionary
281
     1
  3
Layout1
350
1E
  3
Layout2
350
26
  3
Model
350
22
  0
DICTIONARY
  5
3B
102
{ACAD_REACTORS
330
C
102
}
330
C
100
AcDbDictionary
281
     1
  3
ByBlock
350
3D
  3
ByLayer
350
3C
  3
Global
350
3E
  0
DICTIONARY
  5
48C
102
{ACAD_REACTORS
330
C
102
}
330
C
100
AcDbDictionary
281
     1
  0
DICTIONARY
  5
17
102
{ACAD_REACTORS
330
C
102
}
330
C
100
AcDbDictionary
281
     1
  3
Standard
350
18
  0
DICTIONARY
  5
19
102
{ACAD_REACTORS
330
C
102
}
330
C
100
AcDbDictionary
281
     1
  0
ACDBDICTIONARYWDFLT
  5
E
102
{ACAD_REACTORS
330
C
102
}
330
C
100
AcDbDictionary
281
     1
  3
Normal
350
F
100
AcDbDictionaryWithDefault
340
F
  0
DICTIONARY
  5
2A
102
{ACAD_REACTORS
330
C
102
}
330
C
100
AcDbDictionary
281
     1
  3
2dWireframe
350
2F
  3
3D Hidden
350
31
  3
3dWireframe
350
30
  3
Basic
350
32
  3
Brighten
350
36
  3
ColorChange
350
3A
  3
Conceptual
350
34
  3
Dim
350
35
  3
Facepattern
350
39
  3
Flat
350
2B
  3
FlatWithEdges
350
2C
  3
Gouraud
350
2D
  3
GouraudWithEdges
350
2E
  3
Linepattern
350
38
  3
Realistic
350
33
  3
Thicken
350
37
  0
DICTIONARY
  5
48A
102
{ACAD_REACTORS
330
C
102
}
330
C
100
AcDbDictionary
281
     1
  3
DIMASSOC
350
48D
  3
HIDETEXT
350
48E
  0
LAYOUT
  5
1E
102
{ACAD_REACTORS
330
1A
102
}
330
1A
100
AcDbPlotSettings
  1

  2
none_device
  4

  6

 40
0.0
 41
0.0
 42
0.0
 43
0.0
 44
0.0
 45
0.0
 46
0.0
 47
0.0
 48
0.0
 49
0.0
140
0.0
141
0.0
142
1.0
143
1.0
 70
   688
 72
     0
 73
     0
 74
     5
  7

 75
    16
147
1.0
148
0.0
149
0.0
100
AcDbLayout
  1
Layout1
 70
     1
 71
     1
 10
0.0
 20
0.0
 11
12.0
 21
9.0
 12
0.0
 22
0.0
 32
0.0
 14
1.00000000000000E+20
 24
1.00000000000000E+20
 34
1.00000000000000E+20
 15
-1.00000000000000E+20
 25
-1.00000000000000E+20
 35
-1.00000000000000E+20
146
0.0
 13
0.0
 23
0.0
 33
0.0
 16
1.0
 26
0.0
 36
0.0
 17
0.0
 27
1.0
 37
0.0
 76
     0
330
1B
  0
LAYOUT
  5
26
102
{ACAD_REACTORS
330
1A
102
}
330
1A
100
AcDbPlotSettings
  1

  2
none_device
  4

  6

 40
0.0
 41
0.0
 42
0.0
 43
0.0
 44
0.0
 45
0.0
 46
0.0
 47
0.0
 48
0.0
 49
0.0
140
0.0
141
0.0
142
1.0
143
1.0
 70
   688
 72
     0
 73
     0
 74
     5
  7

 75
    16
147
1.0
148
0.0
149
0.0
100
AcDbLayout
  1
Layout2
 70
     1
 71
     2
 10
0.0
 20
0.0
 11
0.0
 21
0.0
 12
0.0
 22
0.0
 32
0.0
 14
0.0
 24
0.0
 34
0.0
 15
0.0
 25
0.0
 35
0.0
146
0.0
 13
0.0
 23
0.0
 33
0.0
 16
1.0
 26
0.0
 36
0.0
 17
0.0
 27
1.0
 37
0.0
 76
     0
330
23
  0
LAYOUT
  5
22
102
{ACAD_REACTORS
330
1A
102
}
330
1A
100
AcDbPlotSettings
  1

  2
none_device
  4

  6

 40
0.0
 41
0.0
 42
0.0
 43
0.0
 44
0.0
 45
0.0
 46
0.0
 47
0.0
 48
0.0
 49
0.0
140
0.0
141
0.0
142
1.0
143
1.0
 70
  1712
 72
     0
 73
     0
 74
     0
  7

 75
     0
147
1.0
148
0.0
149
0.0
100
AcDbLayout
  1
Model
 70
     1
 71
     0
 10
0.0
 20
0.0
 11
12.0
 21
9.0
 12
0.0
 22
0.0
 32
0.0
 14
-297.0000000000001
 24
0.0
 34
0.0
 15
0.0
 25
210.0000000000001
 35
0.0
146
0.0
 13
0.0
 23
0.0
 33
0.0
 16
1.0
 26
0.0
 36
0.0
 17
0.0
 27
1.0
 37
0.0
 76
     0
330
1F
331
29
  0
MATERIAL
  5
3D
102
{ACAD_REACTORS
330
3B
102
}
102
{ACAD_XDICTIONARY
360
4B1
102
}
330
3B
100
AcDbMaterial
  1
ByBlock
  0
MATERIAL
  5
3C
102
{ACAD_REACTORS
330
3B
102
}
102
{ACAD_XDICTIONARY
360
4AF
102
}
330
3B
100
AcDbMaterial
  1
ByLayer
  0
MATERIAL
  5
3E
102
{ACAD_REACTORS
330
3B
102
}
102
{ACAD_XDICTIONARY
360
4B3
102
}
330
3B
100
AcDbMaterial
  1
Global
  0
MLINESTYLE
  5
18
102
{ACAD_REACTORS
330
17
102
}
330
17
100
AcDbMlineStyle
  2
Standard
 70
     0
  3

 62
   256
 51
90.0
 52
90.0
 71
     2
 49
0.5
 62
   256
  6
BYLAYER
 49
-0.5
 62
   256
  6
BYLAYER
  0
ACDBPLACEHOLDER
  5
F
102
{ACAD_REACTORS
330
E
102
}
330
E
  0
VISUALSTYLE
  5
2F
102
{ACAD_REACTORS
330
2A
102
}
102
{ACAD_XDICTIONARY
360
497
102
}
330
2A
100
AcDbVisualStyle
  2
2dWireframe
 70
     4
 71
     0
 72
     2
 73
     0
 90
        0
 40
-0.6
 41
-30.0
 62
     5
 63
     7
 74
     1
 91
        4
 64
     7
 65
   257
 75
     1
175
     1
 42
1.0
 92
        0
 66
   257
 43
1.0
 76
     1
 77
     6
 78
     2
 67
     7
 79
     5
170
     0
171
     0
290
     0
174
     0
 93
        1
 44
0.0
173
     0
291
     0
 45
0.0
1001
ACAD
1000
AcDbSavedByObjectVersion
1070
     0
  0
VISUALSTYLE
  5
31
102
{ACAD_REACTORS
330
2A
102
}
102
{ACAD_XDICTIONARY
360
49B
102
}
330
2A
100
AcDbVisualStyle
  2
3D Hidden
 70
     6
 71
     1
 72
     2
 73
     2
 90
        0
 40
-0.6
 41
-30.0
 62
     5
 63
     7
 74
     2
 91
        2
 64
     7
 65
   257
 75
     2
175
     1
 42
40.0
 92
        0
 66
   257
 43
1.0
 76
     1
 77
     6
 78
     2
 67
     7
 79
     3
170
     0
171
     0
290
     0
174
     0
 93
        1
 44
0.0
173
     0
291
     0
 45
0.0
1001
ACAD
1000
AcDbSavedByObjectVersion
1070
     0
  0
VISUALSTYLE
  5
30
102
{ACAD_REACTORS
330
2A
102
}
102
{ACAD_XDICTIONARY
360
499
102
}
330
2A
100
AcDbVisualStyle
  2
3dWireframe
 70
     5
 71
     0
 72
     2
 73
     0
 90
        0
 40
-0.6
 41
-30.0
 62
     5
 63
     7
 74
     1
 91
        4
 64
     7
 65
   257
 75
     1
175
     1
 42
1.0
 92
        0
 66
   257
 43
1.0
 76
     1
 77
     6
 78
     2
 67
     7
 79
     5
170
     0
171
     0
290
     0
174
     0
 93
        1
 44
0.0
173
     0
291
     0
 45
0.0
1001
ACAD
1000
AcDbSavedByObjectVersion
1070
     0
  0
VISUALSTYLE
  5
32
102
{ACAD_REACTORS
330
2A
102
}
102
{ACAD_XDICTIONARY
360
49D
102
}
330
2A
100
AcDbVisualStyle
  2
Basic
 70
     7
 71
     1
 72
     0
 73
     1
 90
        0
 40
-0.6
 41
-30.0
 62
     5
 63
     7
 74
     0
 91
        4
 64
     7
 65
   257
 75
     1
175
     1
 42
1.0
 92
        8
 66
     7
 43
1.0
 76
     1
 77
     6
 78
     2
 67
     7
 79
     5
170
     0
171
     0
290
     0
174
     0
 93
        1
 44
0.0
173
     0
291
     1
 45
0.0
1001
ACAD
1000
AcDbSavedByObjectVersion
1070
     0
  0
VISUALSTYLE
  5
36
102
{ACAD_REACTORS
330
2A
102
}
102
{ACAD_XDICTIONARY
360
4A5
102
}
330
2A
100
AcDbVisualStyle
  2
Brighten
 70
    12
 71
     2
 72
     2
 73
     0
 90
        0
 40
-0.6
 41
-30.0
 62
     5
 63
     7
 74
     1
 91
        4
 64
     7
 65
   257
 75
     1
175
     1
 42
1.0
 92
        8
 66
     7
 43
1.0
 76
     1
 77
     6
 78
     2
 67
     7
 79
     5
170
     0
171
     0
290
     0
174
     0
 93
        1
 44
50.0
173
     0
291
     1
 45
0.0
1001
ACAD
1000
AcDbSavedByObjectVersion
1070
     0
  0
VISUALSTYLE
  5
3A
102
{ACAD_REACTORS
330
2A
102
}
102
{ACAD_XDICTIONARY
360
4AD
102
}
330
2A
100
AcDbVisualStyle
  2
ColorChange
 70
    16
 71
     2
 72
     2
 73
     3
 90
        0
 40
-0.6
 41
-30.0
 62
     5
 63
     8
 74
     1
 91
        4
 64
     7
 65
   257
 75
     1
175
     1
 42
1.0
 92
        8
 66
     8
 43
1.0
 76
     1
 77
     6
 78
     2
 67
     7
 79
     5
170
     0
171
     0
290
     0
174
     0
 93
        1
 44
0.0
173
     0
291
     1
 45
0.0
1001
ACAD
1000
AcDbSavedByObjectVersion
1070
     0
  0
VISUALSTYLE
  5
34
102
{ACAD_REACTORS
330
2A
102
}
102
{ACAD_XDICTIONARY
360
4A1
102
}
330
2A
100
AcDbVisualStyle
  2
Conceptual
 70
     9
 71
     3
 72
     2
 73
     0
 90
        0
 40
-0.6
 41
-30.0
 62
     5
 63
     7
 74
     2
 91
        2
 64
     7
 65
   257
 75
     1
175
     1
 42
40.0
 92
        8
 66
     7
 43
1.0
 76
     1
 77
     6
 78
     2
 67
     7
 79
     3
170
     0
171
     0
290
     0
174
     0
 93
        1
 44
0.0
173
     0
291
     0
 45
0.0
1001
ACAD
1000
AcDbSavedByObjectVersion
1070
     0
  0
VISUALSTYLE
  5
35
102
{ACAD_REACTORS
330
2A
102
}
102
{ACAD_XDICTIONARY
360
4A3
102
}
330
2A
100
AcDbVisualStyle
  2
Dim
 70
    11
 71
     2
 72
     2
 73
     0
 90
        0
 40
-0.6
 41
-30.0
 62
     5
 63
     7
 74
     1
 91
        4
 64
     7
 65
   257
 75
     1
175
     1
 42
1.0
 92
        8
 66
     7
 43
1.0
 76
     1
 77
     6
 78
     2
 67
     7
 79
     5
170
     0
171
     0
290
     0
174
     0
 93
        1
 44
-50.0
173
     0
291
     1
 45
0.0
1001
ACAD
1000
AcDbSavedByObjectVersion
1070
     0
  0
VISUALSTYLE
  5
39
102
{ACAD_REACTORS
330
2A
102
}
102
{ACAD_XDICTIONARY
360
4AB
102
}
330
2A
100
AcDbVisualStyle
  2
Facepattern
 70
    15
 71
     2
 72
     2
 73
     0
 90
        0
 40
-0.6
 41
-30.0
 62
     5
 63
     7
 74
     1
 91
        4
 64
     7
 65
   257
 75
     1
175
     1
 42
1.0
 92
        8
 66
     7
 43
1.0
 76
     1
 77
     6
 78
     2
 67
     7
 79
     5
170
     0
171
     0
290
     0
174
     0
 93
        1
 44
0.0
173
     0
291
     1
 45
0.0
1001
ACAD
1000
AcDbSavedByObjectVersion
1070
     0
  0
VISUALSTYLE
  5
2B
102
{ACAD_REACTORS
330
2A
102
}
102
{ACAD_XDICTIONARY
360
48F
102
}
330
2A
100
AcDbVisualStyle
  2
Flat
 70
     0
 71
     2
 72
     1
 73
     1
 90
        2
 40
-0.6
 41
30.0
 62
     5
 63
     7
 74
     0
 91
        4
 64
     7
 65
   257
 75
     1
175
     1
 42
1.0
 92
        8
 66
     7
 43
1.0
 76
     1
 77
     6
 78
     2
 67
     7
 79
     5
170
     0
171
     0
290
     0
174
     0
 93
       13
 44
0.0
173
     0
291
     1
 45
0.0
1001
ACAD
1000
AcDbSavedByObjectVersion
1070
     0
  0
VISUALSTYLE
  5
2C
102
{ACAD_REACTORS
330
2A
102
}
102
{ACAD_XDICTIONARY
360
491
102
}
330
2A
100
AcDbVisualStyle
  2
FlatWithEdges
 70
     1
 71
     2
 72
     1
 73
     1
 90
        2
 40
-0.6
 41
30.0
 62
     5
 63
     7
 74
     1
 91
        4
 64
     7
 65
   257
 75
     1
175
     1
 42
1.0
 92
        0
 66
   257
 43
1.0
 76
     1
 77
     6
 78
     2
 67
     7
 79
     5
170
     0
171
     0
290
     0
174
     0
 93
       13
 44
0.0
173
     0
291
     1
 45
0.0
1001
ACAD
1000
AcDbSavedByObjectVersion
1070
     0
  0
VISUALSTYLE
  5
2D
102
{ACAD_REACTORS
330
2A
102
}
102
{ACAD_XDICTIONARY
360
493
102
}
330
2A
100
AcDbVisualStyle
  2
Gouraud
 70
     2
 71
     2
 72
     2
 73
     1
 90
        2
 40
-0.6
 41
30.0
 62
     5
 63
     7
 74
     0
 91
        4
 64
     7
 65
   257
 75
     1
175
     1
 42
1.0
 92
        0
 66
     7
 43
1.0
 76
     1
 77
     6
 78
     2
 67
     7
 79
     5
170
     0
171
     0
290
     0
174
     0
 93
       13
 44
0.0
173
     0
291
     1
 45
0.0
1001
ACAD
1000
AcDbSavedByObjectVersion
1070
     0
  0
VISUALSTYLE
  5
2E
102
{ACAD_REACTORS
330
2A
102
}
102
{ACAD_XDICTIONARY
360
495
102
}
330
2A
100
AcDbVisualStyle
  2
GouraudWithEdges
 70
     3
 71
     2
 72
     2
 73
     1
 90
        2
 40
-0.6
 41
30.0
 62
     5
 63
     7
 74
     1
 91
        4
 64
     7
 65
   257
 75
     1
175
     1
 42
1.0
 92
        0
 66
   257
 43
1.0
 76
     1
 77
     6
 78
     2
 67
     7
 79
     5
170
     0
171
     0
290
     0
174
     0
 93
       13
 44
0.0
173
     0
291
     1
 45
0.0
1001
ACAD
1000
AcDbSavedByObjectVersion
1070
     0
  0
VISUALSTYLE
  5
38
102
{ACAD_REACTORS
330
2A
102
}
102
{ACAD_XDICTIONARY
360
4A9
102
}
330
2A
100
AcDbVisualStyle
  2
Linepattern
 70
    14
 71
     2
 72
     2
 73
     0
 90
        0
 40
-0.6
 41
-30.0
 62
     5
 63
     7
 74
     1
 91
        4
 64
     7
 65
   257
 75
     7
175
     7
 42
1.0
 92
        8
 66
     7
 43
1.0
 76
     1
 77
     6
 78
     2
 67
     7
 79
     5
170
     0
171
     0
290
     0
174
     0
 93
        1
 44
0.0
173
     0
291
     1
 45
0.0
1001
ACAD
1000
AcDbSavedByObjectVersion
1070
     0
  0
VISUALSTYLE
  5
33
102
{ACAD_REACTORS
330
2A
102
}
102
{ACAD_XDICTIONARY
360
49F
102
}
330
2A
100
AcDbVisualStyle
  2
Realistic
 70
     8
 71
     2
 72
     2
 73
     0
 90
        0
 40
-0.6
 41
-30.0
 62
     5
 63
     7
 74
     1
 91
        0
 64
     7
 65
   257
 75
     1
175
     1
 42
1.0
 92
        8
 66
     8
 43
1.0
 76
     1
 77
     6
 78
     2
 67
     7
 79
     5
170
     0
171
     0
290
     0
174
     0
 93
       13
 44
0.0
173
     0
291
     0
 45
0.0
1001
ACAD
1000
AcDbSavedByObjectVersion
1070
     0
  0
VISUALSTYLE
  5
37
102
{ACAD_REACTORS
330
2A
102
}
102
{ACAD_XDICTIONARY
360
4A7
102
}
330
2A
100
AcDbVisualStyle
  2
Thicken
 70
    13
 71
     2
 72
     2
 73
     0
 90
        0
 40
-0.6
 41
-30.0
 62
     5
 63
     7
 74
     1
 91
        4
 64
     7
 65
   257
 75
     1
175
     1
 42
1.0
 92
       12
 66
     7
 43
1.0
 76
     1
 77
     6
 78
     2
 67
     7
 79
     5
170
     0
171
     0
290
     0
174
     0
 93
        1
 44
0.0
173
     0
291
     1
 45
0.0
1001
ACAD
1000
AcDbSavedByObjectVersion
1070
     0
  0
DICTIONARYVAR
  5
48D
102
{ACAD_REACTORS
330
48A
102
}
330
48A
100
DictionaryVariables
280
     0
  1
2
  0
DICTIONARYVAR
  5
48E
102
{ACAD_REACTORS
330
48A
102
}
330
48A
100
DictionaryVariables
280
     0
  1
1
  0
DICTIONARY
  5
4B1
330
3D
100
AcDbDictionary
280
     1
281
     1
  3
ACAD_XREC_ROUNDTRIP
360
4B2
  0
DICTIONARY
  5
4AF
330
3C
100
AcDbDictionary
280
     1
281
     1
  3
ACAD_XREC_ROUNDTRIP
360
4B0
  0
DICTIONARY
  5
4B3
330
3E
100
AcDbDictionary
280
     1
281
     1
  3
ACAD_XREC_ROUNDTRIP
360
4B4
  0
DICTIONARY
  5
497
330
2F
100
AcDbDictionary
280
     1
281
     1
  3
ACAD_XREC_ROUNDTRIP
360
498
  0
DICTIONARY
  5
49B
330
31
100
AcDbDictionary
280
     1
281
     1
  3
ACAD_XREC_ROUNDTRIP
360
49C
  0
DICTIONARY
  5
499
330
30
100
AcDbDictionary
280
     1
281
     1
  3
ACAD_XREC_ROUNDTRIP
360
49A
  0
DICTIONARY
  5
49D
330
32
100
AcDbDictionary
280
     1
281
     1
  3
ACAD_XREC_ROUNDTRIP
360
49E
  0
DICTIONARY
  5
4A5
330
36
100
AcDbDictionary
280
     1
281
     1
  3
ACAD_XREC_ROUNDTRIP
360
4A6
  0
DICTIONARY
  5
4AD
330
3A
100
AcDbDictionary
280
     1
281
     1
  3
ACAD_XREC_ROUNDTRIP
360
4AE
  0
DICTIONARY
  5
4A1
330
34
100
AcDbDictionary
280
     1
281
     1
  3
ACAD_XREC_ROUNDTRIP
360
4A2
  0
DICTIONARY
  5
4A3
330
35
100
AcDbDictionary
280
     1
281
     1
  3
ACAD_XREC_ROUNDTRIP
360
4A4
  0
DICTIONARY
  5
4AB
330
39
100
AcDbDictionary
280
     1
281
     1
  3
ACAD_XREC_ROUNDTRIP
360
4AC
  0
DICTIONARY
  5
48F
330
2B
100
AcDbDictionary
280
     1
281
     1
  3
ACAD_XREC_ROUNDTRIP
360
490
  0
DICTIONARY
  5
491
330
2C
100
AcDbDictionary
280
     1
281
     1
  3
ACAD_XREC_ROUNDTRIP
360
492
  0
DICTIONARY
  5
493
330
2D
100
AcDbDictionary
280
     1
281
     1
  3
ACAD_XREC_ROUNDTRIP
360
494
  0
DICTIONARY
  5
495
330
2E
100
AcDbDictionary
280
     1
281
     1
  3
ACAD_XREC_ROUNDTRIP
360
496
  0
DICTIONARY
  5
4A9
330
38
100
AcDbDictionary
280
     1
281
     1
  3
ACAD_XREC_ROUNDTRIP
360
4AA
  0
DICTIONARY
  5
49F
330
33
100
AcDbDictionary
280
     1
281
     1
  3
ACAD_XREC_ROUNDTRIP
360
4A0
  0
DICTIONARY
  5
4A7
330
37
100
AcDbDictionary
280
     1
281
     1
  3
ACAD_XREC_ROUNDTRIP
360
4A8
  0
XRECORD
  5
4B2
102
{ACAD_REACTORS
330
4B1
102
}
330
4B1
100
AcDbXrecord
280
     1
102
MATERIAL
148
0.0
149
0.0
149
0.0
 93
        0
 94
      127
282
     0
 72
     1
 77
     1
171
     1
175
     1
179
     1
273
     0
  0
XRECORD
  5
4B0
102
{ACAD_REACTORS
330
4AF
102
}
330
4AF
100
AcDbXrecord
280
     1
102
MATERIAL
148
0.0
149
0.0
149
0.0
 93
        0
 94
      127
282
     0
 72
     1
 77
     1
171
     1
175
     1
179
     1
273
     0
  0
XRECORD
  5
4B4
102
{ACAD_REACTORS
330
4B3
102
}
330
4B3
100
AcDbXrecord
280
     1
102
MATERIAL
148
0.0
149
0.0
149
0.0
 93
        0
 94
      127
282
     0
 72
     1
 77
     1
171
     1
175
     1
179
     1
273
     0
  0
XRECORD
  5
498
102
{ACAD_REACTORS
330
497
102
}
330
497
100
AcDbXrecord
280
     1
102
RTVSPropertyOp0
 70
     1
102
RTVSPropertyOp1
 70
     1
102
RTVSPropertyOp2
 70
     1
102
RTVSPropertyOp3
 70
     1
102
RTVSPropertyOp4
 70
     1
102
RTVSPropertyOp5
 70
     1
102
RTVSPropertyOp6
 70
     1
102
RTVSPropertyOp7
 70
     1
102
RTVSPropertyOp8
 70
     1
102
RTVSPropertyOp9
 70
     1
102
RTVSPropertyOp10
 70
     1
102
RTVSPropertyOp11
 70
     1
102
RTVSPropertyOp12
 70
     1
102
RTVSPropertyOp13
 70
     1
102
RTVSPropertyOp14
 70
     1
102
RTVSPropertyOp15
 70
     1
102
RTVSPropertyOp16
 70
     1
102
RTVSPropertyOp17
 70
     1
102
RTVSPropertyOp18
 70
     1
102
RTVSPropertyOp19
 70
     1
102
RTVSPropertyOp20
 70
     1
102
RTVSPropertyOp21
 70
     1
102
RTVSPropertyOp22
 70
     1
102
RTVSPropertyOp23
 70
     1
102
RTVSPropertyOp24
 70
     1
102
RTVSPropertyOp25
 70
     1
102
RTVSPropertyOp26
 70
     1
102
RTVSPropertyOp27
 70
     1
102
RTVSPropertyOp28
 70
     1
102
RTVSPropertyOp29
 70
     1
102
RTVSPropertyOp30
 70
     1
102
RTVSPropertyOp31
 70
     1
102
RTVSPropertyOp32
 70
     1
  0
XRECORD
  5
49C
102
{ACAD_REACTORS
330
49B
102
}
330
49B
100
AcDbXrecord
280
     1
102
RTVSPropertyOp0
 70
     1
102
RTVSPropertyOp1
 70
     1
102
RTVSPropertyOp2
 70
     1
102
RTVSPropertyOp3
 70
     1
102
RTVSPropertyOp4
 70
     1
102
RTVSPropertyOp5
 70
     1
102
RTVSPropertyOp6
 70
     1
102
RTVSPropertyOp7
 70
     1
102
RTVSPropertyOp8
 70
     1
102
RTVSPropertyOp9
 70
     1
102
RTVSPropertyOp10
 70
     1
102
RTVSPropertyOp11
 70
     1
102
RTVSPropertyOp12
 70
     1
102
RTVSPropertyOp13
 70
     1
102
RTVSPropertyOp14
 70
     1
102
RTVSPropertyOp15
 70
     1
102
RTVSPropertyOp16
 70
     1
102
RTVSPropertyOp17
 70
     1
102
RTVSPropertyOp18
 70
     1
102
RTVSPropertyOp19
 70
     1
102
RTVSPropertyOp20
 70
     1
102
RTVSPropertyOp21
 70
     1
102
RTVSPropertyOp22
 70
     1
102
RTVSPropertyOp23
 70
     1
102
RTVSPropertyOp24
 70
     1
102
RTVSPropertyOp25
 70
     1
102
RTVSPropertyOp26
 70
     1
102
RTVSPropertyOp27
 70
     1
102
RTVSPropertyOp28
 70
     1
102
RTVSPropertyOp29
 70
     1
102
RTVSPropertyOp30
 70
     1
102
RTVSPropertyOp31
 70
     1
102
RTVSPropertyOp32
 70
     1
  0
XRECORD
  5
49A
102
{ACAD_REACTORS
330
499
102
}
330
499
100
AcDbXrecord
280
     1
102
RTVSPropertyOp0
 70
     1
102
RTVSPropertyOp1
 70
     1
102
RTVSPropertyOp2
 70
     1
102
RTVSPropertyOp3
 70
     1
102
RTVSPropertyOp4
 70
     1
102
RTVSPropertyOp5
 70
     1
102
RTVSPropertyOp6
 70
     1
102
RTVSPropertyOp7
 70
     1
102
RTVSPropertyOp8
 70
     1
102
RTVSPropertyOp9
 70
     1
102
RTVSPropertyOp10
 70
     1
102
RTVSPropertyOp11
 70
     1
102
RTVSPropertyOp12
 70
     1
102
RTVSPropertyOp13
 70
     1
102
RTVSPropertyOp14
 70
     1
102
RTVSPropertyOp15
 70
     1
102
RTVSPropertyOp16
 70
     1
102
RTVSPropertyOp17
 70
     1
102
RTVSPropertyOp18
 70
     1
102
RTVSPropertyOp19
 70
     1
102
RTVSPropertyOp20
 70
     1
102
RTVSPropertyOp21
 70
     1
102
RTVSPropertyOp22
 70
     1
102
RTVSPropertyOp23
 70
     1
102
RTVSPropertyOp24
 70
     1
102
RTVSPropertyOp25
 70
     1
102
RTVSPropertyOp26
 70
     1
102
RTVSPropertyOp27
 70
     1
102
RTVSPropertyOp28
 70
     1
102
RTVSPropertyOp29
 70
     1
102
RTVSPropertyOp30
 70
     1
102
RTVSPropertyOp31
 70
     1
102
RTVSPropertyOp32
 70
     1
  0
XRECORD
  5
49E
102
{ACAD_REACTORS
330
49D
102
}
330
49D
100
AcDbXrecord
280
     1
102
RTVSPropertyOp0
 70
     1
102
RTVSPropertyOp1
 70
     1
102
RTVSPropertyOp2
 70
     1
102
RTVSPropertyOp3
 70
     1
102
RTVSPropertyOp4
 70
     1
102
RTVSPropertyOp5
 70
     1
102
RTVSPropertyOp6
 70
     1
102
RTVSPropertyOp7
 70
     1
102
RTVSPropertyOp8
 70
     1
102
RTVSPropertyOp9
 70
     1
102
RTVSPropertyOp10
 70
     1
102
RTVSPropertyOp11
 70
     1
102
RTVSPropertyOp12
 70
     1
102
RTVSPropertyOp13
 70
     1
102
RTVSPropertyOp14
 70
     1
102
RTVSPropertyOp15
 70
     1
102
RTVSPropertyOp16
 70
     1
102
RTVSPropertyOp17
 70
     1
102
RTVSPropertyOp18
 70
     1
102
RTVSPropertyOp19
 70
     1
102
RTVSPropertyOp20
 70
     1
102
RTVSPropertyOp21
 70
     1
102
RTVSPropertyOp22
 70
     1
102
RTVSPropertyOp23
 70
     1
102
RTVSPropertyOp24
 70
     1
102
RTVSPropertyOp25
 70
     1
102
RTVSPropertyOp26
 70
     1
102
RTVSPropertyOp27
 70
     1
102
RTVSPropertyOp28
 70
     1
102
RTVSPropertyOp29
 70
     1
102
RTVSPropertyOp30
 70
     1
102
RTVSPropertyOp31
 70
     1
102
RTVSPropertyOp32
 70
     1
  0
XRECORD
  5
4A6
102
{ACAD_REACTORS
330
4A5
102
}
330
4A5
100
AcDbXrecord
280
     1
102
RTVSPropertyOp0
 70
     1
102
RTVSPropertyOp1
 70
     1
102
RTVSPropertyOp2
 70
     1
102
RTVSPropertyOp3
 70
     1
102
RTVSPropertyOp4
 70
     1
102
RTVSPropertyOp5
 70
     1
102
RTVSPropertyOp6
 70
     1
102
RTVSPropertyOp7
 70
     1
102
RTVSPropertyOp8
 70
     1
102
RTVSPropertyOp9
 70
     1
102
RTVSPropertyOp10
 70
     1
102
RTVSPropertyOp11
 70
     1
102
RTVSPropertyOp12
 70
     1
102
RTVSPropertyOp13
 70
     1
102
RTVSPropertyOp14
 70
     1
102
RTVSPropertyOp15
 70
     1
102
RTVSPropertyOp16
 70
     1
102
RTVSPropertyOp17
 70
     1
102
RTVSPropertyOp18
 70
     1
102
RTVSPropertyOp19
 70
     1
102
RTVSPropertyOp20
 70
     1
102
RTVSPropertyOp21
 70
     1
102
RTVSPropertyOp22
 70
     1
102
RTVSPropertyOp23
 70
     1
102
RTVSPropertyOp24
 70
     1
102
RTVSPropertyOp25
 70
     1
102
RTVSPropertyOp26
 70
     1
102
RTVSPropertyOp27
 70
     1
102
RTVSPropertyOp28
 70
     1
102
RTVSPropertyOp29
 70
     1
102
RTVSPropertyOp30
 70
     1
102
RTVSPropertyOp31
 70
     1
102
RTVSPropertyOp32
 70
     1
  0
XRECORD
  5
4AE
102
{ACAD_REACTORS
330
4AD
102
}
330
4AD
100
AcDbXrecord
280
     1
102
RTVSPropertyOp0
 70
     1
102
RTVSPropertyOp1
 70
     1
102
RTVSPropertyOp2
 70
     1
102
RTVSPropertyOp3
 70
     1
102
RTVSPropertyOp4
 70
     1
102
RTVSPropertyOp5
 70
     1
102
RTVSPropertyOp6
 70
     1
102
RTVSPropertyOp7
 70
     1
102
RTVSPropertyOp8
 70
     1
102
RTVSPropertyOp9
 70
     1
102
RTVSPropertyOp10
 70
     1
102
RTVSPropertyOp11
 70
     1
102
RTVSPropertyOp12
 70
     1
102
RTVSPropertyOp13
 70
     1
102
RTVSPropertyOp14
 70
     1
102
RTVSPropertyOp15
 70
     1
102
RTVSPropertyOp16
 70
     1
102
RTVSPropertyOp17
 70
     1
102
RTVSPropertyOp18
 70
     1
102
RTVSPropertyOp19
 70
     1
102
RTVSPropertyOp20
 70
     1
102
RTVSPropertyOp21
 70
     1
102
RTVSPropertyOp22
 70
     1
102
RTVSPropertyOp23
 70
     1
102
RTVSPropertyOp24
 70
     1
102
RTVSPropertyOp25
 70
     1
102
RTVSPropertyOp26
 70
     1
102
RTVSPropertyOp27
 70
     1
102
RTVSPropertyOp28
 70
     1
102
RTVSPropertyOp29
 70
     1
102
RTVSPropertyOp30
 70
     1
102
RTVSPropertyOp31
 70
     1
102
RTVSPropertyOp32
 70
     1
  0
XRECORD
  5
4A2
102
{ACAD_REACTORS
330
4A1
102
}
330
4A1
100
AcDbXrecord
280
     1
102
RTVSPropertyOp0
 70
     1
102
RTVSPropertyOp1
 70
     1
102
RTVSPropertyOp2
 70
     1
102
RTVSPropertyOp3
 70
     1
102
RTVSPropertyOp4
 70
     1
102
RTVSPropertyOp5
 70
     1
102
RTVSPropertyOp6
 70
     1
102
RTVSPropertyOp7
 70
     1
102
RTVSPropertyOp8
 70
     1
102
RTVSPropertyOp9
 70
     1
102
RTVSPropertyOp10
 70
     1
102
RTVSPropertyOp11
 70
     1
102
RTVSPropertyOp12
 70
     1
102
RTVSPropertyOp13
 70
     1
102
RTVSPropertyOp14
 70
     1
102
RTVSPropertyOp15
 70
     1
102
RTVSPropertyOp16
 70
     1
102
RTVSPropertyOp17
 70
     1
102
RTVSPropertyOp18
 70
     1
102
RTVSPropertyOp19
 70
     1
102
RTVSPropertyOp20
 70
     1
102
RTVSPropertyOp21
 70
     1
102
RTVSPropertyOp22
 70
     1
102
RTVSPropertyOp23
 70
     1
102
RTVSPropertyOp24
 70
     1
102
RTVSPropertyOp25
 70
     1
102
RTVSPropertyOp26
 70
     1
102
RTVSPropertyOp27
 70
     1
102
RTVSPropertyOp28
 70
     1
102
RTVSPropertyOp29
 70
     1
102
RTVSPropertyOp30
 70
     1
102
RTVSPropertyOp31
 70
     1
102
RTVSPropertyOp32
 70
     1
  0
XRECORD
  5
4A4
102
{ACAD_REACTORS
330
4A3
102
}
330
4A3
100
AcDbXrecord
280
     1
102
RTVSPropertyOp0
 70
     1
102
RTVSPropertyOp1
 70
     1
102
RTVSPropertyOp2
 70
     1
102
RTVSPropertyOp3
 70
     1
102
RTVSPropertyOp4
 70
     1
102
RTVSPropertyOp5
 70
     1
102
RTVSPropertyOp6
 70
     1
102
RTVSPropertyOp7
 70
     1
102
RTVSPropertyOp8
 70
     1
102
RTVSPropertyOp9
 70
     1
102
RTVSPropertyOp10
 70
     1
102
RTVSPropertyOp11
 70
     1
102
RTVSPropertyOp12
 70
     1
102
RTVSPropertyOp13
 70
     1
102
RTVSPropertyOp14
 70
     1
102
RTVSPropertyOp15
 70
     1
102
RTVSPropertyOp16
 70
     1
102
RTVSPropertyOp17
 70
     1
102
RTVSPropertyOp18
 70
     1
102
RTVSPropertyOp19
 70
     1
102
RTVSPropertyOp20
 70
     1
102
RTVSPropertyOp21
 70
     1
102
RTVSPropertyOp22
 70
     1
102
RTVSPropertyOp23
 70
     1
102
RTVSPropertyOp24
 70
     1
102
RTVSPropertyOp25
 70
     1
102
RTVSPropertyOp26
 70
     1
102
RTVSPropertyOp27
 70
     1
102
RTVSPropertyOp28
 70
     1
102
RTVSPropertyOp29
 70
     1
102
RTVSPropertyOp30
 70
     1
102
RTVSPropertyOp31
 70
     1
102
RTVSPropertyOp32
 70
     1
  0
XRECORD
  5
4AC
102
{ACAD_REACTORS
330
4AB
102
}
330
4AB
100
AcDbXrecord
280
     1
102
RTVSPropertyOp0
 70
     1
102
RTVSPropertyOp1
 70
     1
102
RTVSPropertyOp2
 70
     1
102
RTVSPropertyOp3
 70
     1
102
RTVSPropertyOp4
 70
     1
102
RTVSPropertyOp5
 70
     1
102
RTVSPropertyOp6
 70
     1
102
RTVSPropertyOp7
 70
     1
102
RTVSPropertyOp8
 70
     1
102
RTVSPropertyOp9
 70
     1
102
RTVSPropertyOp10
 70
     1
102
RTVSPropertyOp11
 70
     1
102
RTVSPropertyOp12
 70
     1
102
RTVSPropertyOp13
 70
     1
102
RTVSPropertyOp14
 70
     1
102
RTVSPropertyOp15
 70
     1
102
RTVSPropertyOp16
 70
     1
102
RTVSPropertyOp17
 70
     1
102
RTVSPropertyOp18
 70
     1
102
RTVSPropertyOp19
 70
     1
102
RTVSPropertyOp20
 70
     1
102
RTVSPropertyOp21
 70
     1
102
RTVSPropertyOp22
 70
     1
102
RTVSPropertyOp23
 70
     1
102
RTVSPropertyOp24
 70
     1
102
RTVSPropertyOp25
 70
     1
102
RTVSPropertyOp26
 70
     1
102
RTVSPropertyOp27
 70
     1
102
RTVSPropertyOp28
 70
     1
102
RTVSPropertyOp29
 70
     1
102
RTVSPropertyOp30
 70
     1
102
RTVSPropertyOp31
 70
     1
102
RTVSPropertyOp32
 70
     1
  0
XRECORD
  5
490
102
{ACAD_REACTORS
330
48F
102
}
330
48F
100
AcDbXrecord
280
     1
102
RTVSPropertyOp0
 70
     1
102
RTVSPropertyOp1
 70
     1
102
RTVSPropertyOp2
 70
     1
102
RTVSPropertyOp3
 70
     1
102
RTVSPropertyOp4
 70
     1
102
RTVSPropertyOp5
 70
     1
102
RTVSPropertyOp6
 70
     1
102
RTVSPropertyOp7
 70
     1
102
RTVSPropertyOp8
 70
     1
102
RTVSPropertyOp9
 70
     1
102
RTVSPropertyOp10
 70
     1
102
RTVSPropertyOp11
 70
     1
102
RTVSPropertyOp12
 70
     1
102
RTVSPropertyOp13
 70
     1
102
RTVSPropertyOp14
 70
     1
102
RTVSPropertyOp15
 70
     1
102
RTVSPropertyOp16
 70
     1
102
RTVSPropertyOp17
 70
     1
102
RTVSPropertyOp18
 70
     1
102
RTVSPropertyOp19
 70
     1
102
RTVSPropertyOp20
 70
     1
102
RTVSPropertyOp21
 70
     1
102
RTVSPropertyOp22
 70
     1
102
RTVSPropertyOp23
 70
     1
102
RTVSPropertyOp24
 70
     1
102
RTVSPropertyOp25
 70
     1
102
RTVSPropertyOp26
 70
     1
102
RTVSPropertyOp27
 70
     1
102
RTVSPropertyOp28
 70
     1
102
RTVSPropertyOp29
 70
     1
102
RTVSPropertyOp30
 70
     1
102
RTVSPropertyOp31
 70
     1
102
RTVSPropertyOp32
 70
     1
  0
XRECORD
  5
492
102
{ACAD_REACTORS
330
491
102
}
330
491
100
AcDbXrecord
280
     1
102
RTVSPropertyOp0
 70
     1
102
RTVSPropertyOp1
 70
     1
102
RTVSPropertyOp2
 70
     1
102
RTVSPropertyOp3
 70
     1
102
RTVSPropertyOp4
 70
     1
102
RTVSPropertyOp5
 70
     1
102
RTVSPropertyOp6
 70
     1
102
RTVSPropertyOp7
 70
     1
102
RTVSPropertyOp8
 70
     1
102
RTVSPropertyOp9
 70
     1
102
RTVSPropertyOp10
 70
     1
102
RTVSPropertyOp11
 70
     1
102
RTVSPropertyOp12
 70
     1
102
RTVSPropertyOp13
 70
     1
102
RTVSPropertyOp14
 70
     1
102
RTVSPropertyOp15
 70
     1
102
RTVSPropertyOp16
 70
     1
102
RTVSPropertyOp17
 70
     1
102
RTVSPropertyOp18
 70
     1
102
RTVSPropertyOp19
 70
     1
102
RTVSPropertyOp20
 70
     1
102
RTVSPropertyOp21
 70
     1
102
RTVSPropertyOp22
 70
     1
102
RTVSPropertyOp23
 70
     1
102
RTVSPropertyOp24
 70
     1
102
RTVSPropertyOp25
 70
     1
102
RTVSPropertyOp26
 70
     1
102
RTVSPropertyOp27
 70
     1
102
RTVSPropertyOp28
 70
     1
102
RTVSPropertyOp29
 70
     1
102
RTVSPropertyOp30
 70
     1
102
RTVSPropertyOp31
 70
     1
102
RTVSPropertyOp32
 70
     1
  0
XRECORD
  5
494
102
{ACAD_REACTORS
330
493
102
}
330
493
100
AcDbXrecord
280
     1
102
RTVSPropertyOp0
 70
     1
102
RTVSPropertyOp1
 70
     1
102
RTVSPropertyOp2
 70
     1
102
RTVSPropertyOp3
 70
     1
102
RTVSPropertyOp4
 70
     1
102
RTVSPropertyOp5
 70
     1
102
RTVSPropertyOp6
 70
     1
102
RTVSPropertyOp7
 70
     1
102
RTVSPropertyOp8
 70
     1
102
RTVSPropertyOp9
 70
     1
102
RTVSPropertyOp10
 70
     1
102
RTVSPropertyOp11
 70
     1
102
RTVSPropertyOp12
 70
     1
102
RTVSPropertyOp13
 70
     1
102
RTVSPropertyOp14
 70
     1
102
RTVSPropertyOp15
 70
     1
102
RTVSPropertyOp16
 70
     1
102
RTVSPropertyOp17
 70
     1
102
RTVSPropertyOp18
 70
     1
102
RTVSPropertyOp19
 70
     1
102
RTVSPropertyOp20
 70
     1
102
RTVSPropertyOp21
 70
     1
102
RTVSPropertyOp22
 70
     1
102
RTVSPropertyOp23
 70
     1
102
RTVSPropertyOp24
 70
     1
102
RTVSPropertyOp25
 70
     1
102
RTVSPropertyOp26
 70
     1
102
RTVSPropertyOp27
 70
     1
102
RTVSPropertyOp28
 70
     1
102
RTVSPropertyOp29
 70
     1
102
RTVSPropertyOp30
 70
     1
102
RTVSPropertyOp31
 70
     1
102
RTVSPropertyOp32
 70
     1
  0
XRECORD
  5
496
102
{ACAD_REACTORS
330
495
102
}
330
495
100
AcDbXrecord
280
     1
102
RTVSPropertyOp0
 70
     1
102
RTVSPropertyOp1
 70
     1
102
RTVSPropertyOp2
 70
     1
102
RTVSPropertyOp3
 70
     1
102
RTVSPropertyOp4
 70
     1
102
RTVSPropertyOp5
 70
     1
102
RTVSPropertyOp6
 70
     1
102
RTVSPropertyOp7
 70
     1
102
RTVSPropertyOp8
 70
     1
102
RTVSPropertyOp9
 70
     1
102
RTVSPropertyOp10
 70
     1
102
RTVSPropertyOp11
 70
     1
102
RTVSPropertyOp12
 70
     1
102
RTVSPropertyOp13
 70
     1
102
RTVSPropertyOp14
 70
     1
102
RTVSPropertyOp15
 70
     1
102
RTVSPropertyOp16
 70
     1
102
RTVSPropertyOp17
 70
     1
102
RTVSPropertyOp18
 70
     1
102
RTVSPropertyOp19
 70
     1
102
RTVSPropertyOp20
 70
     1
102
RTVSPropertyOp21
 70
     1
102
RTVSPropertyOp22
 70
     1
102
RTVSPropertyOp23
 70
     1
102
RTVSPropertyOp24
 70
     1
102
RTVSPropertyOp25
 70
     1
102
RTVSPropertyOp26
 70
     1
102
RTVSPropertyOp27
 70
     1
102
RTVSPropertyOp28
 70
     1
102
RTVSPropertyOp29
 70
     1
102
RTVSPropertyOp30
 70
     1
102
RTVSPropertyOp31
 70
     1
102
RTVSPropertyOp32
 70
     1
  0
XRECORD
  5
4AA
102
{ACAD_REACTORS
330
4A9
102
}
330
4A9
100
AcDbXrecord
280
     1
102
RTVSPropertyOp0
 70
     1
102
RTVSPropertyOp1
 70
     1
102
RTVSPropertyOp2
 70
     1
102
RTVSPropertyOp3
 70
     1
102
RTVSPropertyOp4
 70
     1
102
RTVSPropertyOp5
 70
     1
102
RTVSPropertyOp6
 70
     1
102
RTVSPropertyOp7
 70
     1
102
RTVSPropertyOp8
 70
     1
102
RTVSPropertyOp9
 70
     1
102
RTVSPropertyOp10
 70
     1
102
RTVSPropertyOp11
 70
     1
102
RTVSPropertyOp12
 70
     1
102
RTVSPropertyOp13
 70
     1
102
RTVSPropertyOp14
 70
     1
102
RTVSPropertyOp15
 70
     1
102
RTVSPropertyOp16
 70
     1
102
RTVSPropertyOp17
 70
     1
102
RTVSPropertyOp18
 70
     1
102
RTVSPropertyOp19
 70
     1
102
RTVSPropertyOp20
 70
     1
102
RTVSPropertyOp21
 70
     1
102
RTVSPropertyOp22
 70
     1
102
RTVSPropertyOp23
 70
     1
102
RTVSPropertyOp24
 70
     1
102
RTVSPropertyOp25
 70
     1
102
RTVSPropertyOp26
 70
     1
102
RTVSPropertyOp27
 70
     1
102
RTVSPropertyOp28
 70
     1
102
RTVSPropertyOp29
 70
     1
102
RTVSPropertyOp30
 70
     1
102
RTVSPropertyOp31
 70
     1
102
RTVSPropertyOp32
 70
     1
  0
XRECORD
  5
4A0
102
{ACAD_REACTORS
330
49F
102
}
330
49F
100
AcDbXrecord
280
     1
102
RTVSPropertyOp0
 70
     1
102
RTVSPropertyOp1
 70
     1
102
RTVSPropertyOp2
 70
     1
102
RTVSPropertyOp3
 70
     1
102
RTVSPropertyOp4
 70
     1
102
RTVSPropertyOp5
 70
     1
102
RTVSPropertyOp6
 70
     1
102
RTVSPropertyOp7
 70
     1
102
RTVSPropertyOp8
 70
     1
102
RTVSPropertyOp9
 70
     1
102
RTVSPropertyOp10
 70
     1
102
RTVSPropertyOp11
 70
     1
102
RTVSPropertyOp12
 70
     1
102
RTVSPropertyOp13
 70
     1
102
RTVSPropertyOp14
 70
     1
102
RTVSPropertyOp15
 70
     1
102
RTVSPropertyOp16
 70
     1
102
RTVSPropertyOp17
 70
     1
102
RTVSPropertyOp18
 70
     1
102
RTVSPropertyOp19
 70
     1
102
RTVSPropertyOp20
 70
     1
102
RTVSPropertyOp21
 70
     1
102
RTVSPropertyOp22
 70
     1
102
RTVSPropertyOp23
 70
     1
102
RTVSPropertyOp24
 70
     1
102
RTVSPropertyOp25
 70
     1
102
RTVSPropertyOp26
 70
     1
102
RTVSPropertyOp27
 70
     1
102
RTVSPropertyOp28
 70
     1
102
RTVSPropertyOp29
 70
     1
102
RTVSPropertyOp30
 70
     1
102
RTVSPropertyOp31
 70
     1
102
RTVSPropertyOp32
 70
     1
  0
XRECORD
  5
4A8
102
{ACAD_REACTORS
330
4A7
102
}
330
4A7
100
AcDbXrecord
280
     1
102
RTVSPropertyOp0
 70
     1
102
RTVSPropertyOp1
 70
     1
102
RTVSPropertyOp2
 70
     1
102
RTVSPropertyOp3
 70
     1
102
RTVSPropertyOp4
 70
     1
102
RTVSPropertyOp5
 70
     1
102
RTVSPropertyOp6
 70
     1
102
RTVSPropertyOp7
 70
     1
102
RTVSPropertyOp8
 70
     1
102
RTVSPropertyOp9
 70
     1
102
RTVSPropertyOp10
 70
     1
102
RTVSPropertyOp11
 70
     1
102
RTVSPropertyOp12
 70
     1
102
RTVSPropertyOp13
 70
     1
102
RTVSPropertyOp14
 70
     1
102
RTVSPropertyOp15
 70
     1
102
RTVSPropertyOp16
 70
     1
102
RTVSPropertyOp17
 70
     1
102
RTVSPropertyOp18
 70
     1
102
RTVSPropertyOp19
 70
     1
102
RTVSPropertyOp20
 70
     1
102
RTVSPropertyOp21
 70
     1
102
RTVSPropertyOp22
 70
     1
102
RTVSPropertyOp23
 70
     1
102
RTVSPropertyOp24
 70
     1
102
RTVSPropertyOp25
 70
     1
102
RTVSPropertyOp26
 70
     1
102
RTVSPropertyOp27
 70
     1
102
RTVSPropertyOp28
 70
     1
102
RTVSPropertyOp29
 70
     1
102
RTVSPropertyOp30
 70
     1
102
RTVSPropertyOp31
 70
     1
102
RTVSPropertyOp32
 70
     1
  0
ENDSEC
  0
EOF
